[ url];videoid format avcformat info advanced video codecformat profile high@l format settings cabac yesformat settings reframes framescodec id avc codec id info advanced video codingduration mn sbit rate kbpsmaximum bit rate mbpswidth pixelsheight pixelsdisplay aspect ratio frame rate mode constantframe rate Скачать торрент без регистрации, быстро, бесплатно." /> Непознанная вселенная. Екатерина Алакаева (реж. Людмила Макарова) [1994, Телепередача, VHSRip-AVC] (Целительство, нетрадиционная медицина) : Всё лучшее детям! Форум-трекер для Родителей!
Статистика раздачи
Размер:  554 MB   |    Зарегистрирован:  2 месяца 14 дней   |    Скачан:  0 раз

Полного источника не было: Никогда

 
   
 
 

deltacatsplus ®

Пол:
Не указан
Стаж:
7 месяцев 10 дней
Сообщений:
202

Непознанная вселенная. Екатерина Алакаева
Год выпуска: 1994
Страна: Россия
Жанр: Телепередача
Продолжительность: 00:29:28
Перевод: Не требуется
Режиссер: Людмила Макарова
Студия: ТПО Открытый мир
Телеканал: НТВ, РТР
Описание: Запись выпуска телепередачи из цикла "Непознанная вселенная" о результатах целительской работы Екатерины Алакаевой - народной целительницы, автора патента на основе своего открытия биоэнергетического кольца.
Качество: VHSRip
Формат: MP4
Видео: AVC, 732x548 (4:3), 25.000 fps, x.264, 2400 Kbps, 0.239 bits/pixel
Аудио: AAC, 48.0 KHz, 224 Kbps, 2 ch

MediaInfo

General
Complete name : F:\Непознанная вселенная с Алакаевой Екатериной (1994).mp4
Format : MPEG-4
Format profile : Base Media
Codec ID : isom (isom)
File size : 554 MiB
Duration : 29mn 28s
Overall bit rate mode : Variable
Overall bit rate : 2 629 Kbps
Encoded date : UTC 2017-10-21 18:53:02
Tagged date : UTC 2017-10-21 18:53:02
Writing application : My MP4Box GUI 0.6.0.6 <[url=http://my-mp4box-gui.zymichost.com>]http://my-mp4box-gui.zymichost.com>[/url];
Video
ID : 1
Format : AVC
Format/Info : Advanced Video Codec
Format profile : High@L3
Format settings, CABAC : Yes
Format settings, ReFrames : 4 frames
Codec ID : avc1
Codec ID/Info : Advanced Video Coding
Duration : 29mn 28s
Bit rate : 2 400 Kbps
Maximum bit rate : 11.1 Mbps
Width : 732 pixels
Height : 548 pixels
Display aspect ratio : 4:3
Frame rate mode : Constant
Frame rate : 25.000 fps
Color space : YUV
Chroma subsampling : 4:2:0
Bit depth : 8 bits
Scan type : Progressive
Bits/(Pixel*Frame) : 0.239
Stream size : 506 MiB (91%)
Title : Íåïîçíàííàÿ âñåëåííàÿ 02.mp4
Writing library : x264 core 148 r2638 7599210
Encoding settings : cabac=1 / ref=3 / deblock=1:-1:-1 / analyse=0x3:0x113 / me=hex / subme=7 / psy=1 / psy_rd=1.00:0.15 / mixed_ref=1 / me_range=16 / chroma_me=1 / trellis=1 / 8x8dct=1 / cqm=0 / deadzone=21,11 / fast_pskip=1 / chroma_qp_offset=-3 / threads=3 / lookahead_threads=1 / sliced_threads=0 / nr=0 / decimate=1 / interlaced=0 / bluray_compat=0 / constrained_intra=0 / bframes=2 / b_pyramid=2 / b_adapt=1 / b_bias=0 / direct=1 / weightb=1 / open_gop=0 / weightp=2 / keyint=120 / keyint_min=12 / scenecut=40 / intra_refresh=0 / rc_lookahead=40 / rc=2pass / mbtree=1 / bitrate=2400 / ratetol=1.0 / qcomp=0.60 / qpmin=0 / qpmax=69 / qpstep=4 / cplxblur=20.0 / qblur=0.5 / ip_ratio=1.40 / aq=1:1.00
Encoded date : UTC 2017-05-19 18:04:48
Tagged date : UTC 2017-10-21 18:53:11
Audio
ID : 2
Format : AAC
Format/Info : Advanced Audio Codec
Format profile : LC
Codec ID : 40
Duration : 29mn 28s
Bit rate mode : Variable
Bit rate : 224 Kbps
Maximum bit rate : 234 Kbps
Channel(s) : 2 channels
Channel positions : Front: L R
Sampling rate : 48.0 KHz
Frame rate : 46.875 fps (1024 spf)
Compression mode : Lossy
Stream size : 47.2 MiB (9%)
Title : audio01.mp4
Encoded date : UTC 2017-10-21 18:53:10
Tagged date : UTC 2017-10-21 18:53:11

Скриншоты

[cybertorrent.ru].t57168.torrent 
Торрент: Зарегистрирован [ 2018-07-12 04:13 ] · DA90787AB15F98E9313EBE149C73DEFF269A29C3

Скачать .torrent

Скачать

11 KB

Статус: проверено
Скачан: 0 раз
Размер: 554 MB
Профиль [ЛС]
Показать сообщения:    

Текущее время: 26-Сен 05:10

Часовой пояс: UTC ± 0



Вы не можете начинать темы
Вы не можете отвечать на сообщения
Вы не можете редактировать свои сообщения
Вы не можете удалять свои сообщения
Вы не можете голосовать в опросах
Вы не можете прикреплять файлы к сообщениям
Вы можете скачивать файлы
Torrents24.ru открытый BitTorrent Torrents24.pl открытый BitTorrent CyberTorrent.ru открытый BitTorrent BtList.ru рейтинг BitTorrent трекеров Яндекс.Метрика