BitTorrent клиенты



Миссис Хайд / Madame Hyde (Серж Бозон / Serge Bozon) [2017, Франция, комедия, фантастика, драма, WEB-DLRip] MVO (Студия "Позитив")

Ответить на тему
Статистика раздачи
Размер:  1,46 GB   |    Зарегистрирован:  4 месяца 13 дней   |    Скачан:  1 раз

Полного источника не было: 4 месяца 8 дней

 
   
 
 
Автор Сообщение

RealMan ®

Пол: Не указан

Стаж: 1 год

Сообщений: 1400

Создавать темы 03-Окт-2018 16:52

[Цитировать]

Миссис Хайд / Madame Hyde
Страна: Франция
Жанр: комедия, фантастика, драма
Год выпуска: 2017
Продолжительность: 01:35:25-Перевод: Профессиональный (многоголосый закадровый) | Студия "Позитив"
Субтитры: нет
Оригинальная аудиодорожка: нет-Режиссер: Серж Бозон / Serge Bozon-В ролях: Изабель Юппер, Ромен Дюрис, Хосе Гарсиа, Адда Сенани, Гийом Вердье, Патриция Барзик, Пьер Леон, Роксана Арнал, Ангела Мецгер, Белкасем Лалауи-Описание: Мадам Жекиль — эксцентричная училка, которую ни в грош не ставят ни коллеги, ни ученики. Однажды в грозовую ночь в нее попадает молния, и это происшествие фантастическим образом меняет героиню. В кроткой мадам пробуждается дьявольская миссис Хайд. Властная и опасная для окружающих, она живет внутри мадам Жекиль и ждет удобного момента, чтобы отомстить своим обидчикам.-Качество видео: WEB-DLRip
Формат видео: AVI
Видео: 720x400 (1.80:1), 23.976 fps, XviD build 73 ~1789 kbps avg, 0.26 bit/pixel
Аудио: 48 kHz, AC3 Dolby Digital, 3/2 (L,C,R,l,r) + LFE ch, ~384 kbps-[box]Сэмпл[/box]-

MediaInfo

Код:Формат : AVI
Формат/Информация : Audio Video Interleave
Размер файла : 1,46 Гбайт
Продолжительность : 1 ч. 35 м.
Общий поток : 2183 Кбит/сек
Программа кодирования : VirtualDubMod 1.5.10.3 | www.virtualdub-fr.org || (build 2550/release)
Библиотека кодирования : VirtualDubMod build 2550/release
Видео
Идентификатор : 0
Формат : MPEG-4 Visual
Профиль формата : Advanced Simple@L5
Настройки формата : BVOP1 / Custom Matrix
Параметр BVOP формата : 1
Параметр QPel формата : Нет
Параметр GMC формата : Без точки перехода
Параметр матрицы формата : Выборочная
Идентификатор кодека : XVID
Идентификатор кодека/Подсказка : XviD
Продолжительность : 1 ч. 35 м.
Битрейт : 1790 Кбит/сек
Ширина : 720 пикселей
Высота : 400 пикселей
Соотношение сторон : 16:9
Частота кадров : 23,976 (24000/1001) кадра/сек
Цветовое пространство : YUV
Субдискретизация насыщенности : 4:2:0
Битовая глубина : 8 бит
Тип развёртки : Прогрессивная
Метод сжатия : С потерями
Бит/(Пиксели*Кадры) : 0.259
Размер потока : 1,19 Гбайт (82%)
Библиотека кодирования : XviD 73
Аудио
Идентификатор : 1
Формат : AC-3
Формат/Информация : Audio Coding 3
Коммерческое название : Dolby Digital
Идентификатор кодека : 2000
Продолжительность : 1 ч. 35 м.
Вид битрейта : Постоянный
Битрейт : 384 Кбит/сек
Каналы : 6 каналов
Channel layout : L R C LFE Ls Rs
Частота : 48,0 КГц
Частота кадров : 31,250 кадров/сек (1536 SPF)
Битовая глубина : 16 бит
Метод сжатия : С потерями
Размер потока : 262 Мбайт (18%)
Выравнивание : Разделение по промежуткам
Продолжительность промежутка : 42 мс. (1,00 видеокадр)
Время предзагрузки промежутка : 500 мс.
ServiceKind/String : Complete Main

Скриншоты


[cybertorrent.ru].t57173.torrent 
Торрент: Зарегистрирован [ 2018-10-03 16:55 ] · B917A0D47945376A0490FFB89CB72057A643CAE6

Скачать .torrent

Скачать

15 KB

Статус: проверено
Скачан: 1 раз
Размер: 1,46 GB
terms.php
[Профиль] [ЛС]
Показать сообщения:    
Ответить на тему

Текущее время: 17-Фев 08:23

Часовой пояс: UTC + 3



Вы не можете начинать темы
Вы не можете отвечать на сообщения
Вы не можете редактировать свои сообщения
Вы не можете удалять свои сообщения
Вы не можете голосовать в опросах
Вы не можете прикреплять файлы к сообщениям
Вы можете скачивать файлы