BitTorrent клиенты



Человек-муравей и Оса / Ant-Man and the Wasp (Пейтон Рид / Peyton Reed) [2018, США, фантастика, боевик, приключения, WEB-DLRip] Original (Eng) + Sub (Rus, Eng)

Ответить на тему
Статистика раздачи
Размер:  1,46 GB   |    Зарегистрирован:  4 месяца 13 дней   |    Скачан:  0 раз

Полного источника не было: Никогда

 
   
 
 
Автор Сообщение

kex ®

Пол: Не указан

Стаж: 1 год

Сообщений: 630

Создавать темы 03-Окт-2018 16:51

[Цитировать]

Человек-муравей и Оса / Ant-Man and the Wasp- Год выхода: 2018
Выпущено: США / Marvel Studios
Жанр: фантастика, боевик, приключения
Продолжительность: 01:58:05
Перевод: Субтитры
Субтитры: Русские (полные - Ruf), Английские (SDH) (внешние *.srt)
Оригинальная аудиодорожка: английская-Режиссер:
Пейтон Рид / Peyton Reed-В ролях:
Пол Радд, Эванджелин Лилли, Майкл Пенья, Уолтон Гоггинс, Бобби Каннавейл, Джуди Грир, Ти Ай, Давид Дастмалчян, Ханна Джон-Кэймен, Эбби Райдер Фортсон-О фильме:
Скотт Лэнг, известный также как Человек-муравей, уже заслужил право оказаться в команде Мстителей. Но желание быть ближе к дочери удерживает его в родном Сан-Франциско — до тех пор, пока доктор Хэнк Пим, создавший когда-то изменяющий размеры своего владельца чудо-костюм, не призывает Скотта присоединиться к новой опасной миссии. А помогать в противостоянии с коварным врагом Человеку-муравью будет новая напарница — Оса.-Релиз групп | | IMDB | КиноПоиск | Сэмпл |-Качество: WEB-DLRip [Ant.Man.and.the.Wasp.2018.1080p.WEB-DL.H264.AC3-EVO]
Формат: AVI
Видео: 720x304 (2.37:1), 23.976 fps, XviD build 67 ~1374 kbps avg, 0.26 bit/pixel
Аудио: 48 kHz, AC3 Dolby Digital, 3/2 (L,C,R,l,r) + LFE ch, ~384 kbps avg-

Скриншоты

-

MediaInfo

Код:Общее
Полное имя : D:\Chelovek_muravey_i_Osa_2018_WEB-DLRip_Sub_by_Dalemake.avi
Формат : AVI
Формат/Информация : Audio Video Interleave
Размер файла : 1,46 Гбайт
Продолжительность : 1 ч. 58 м.
Общий поток : 1767 Кбит/сек
Программа кодирования : VirtualDubMod 1.5.10.3 | www.virtualdub-fr.org || (build 2550/release)
Библиотека кодирования : VirtualDubMod build 2550/release
Видео
Идентификатор : 0
Формат : MPEG-4 Visual
Профиль формата : Advanced Simple@L5
Параметр BVOP формата : 1
Параметр QPel формата : Нет
Параметр GMC формата : Без точки перехода
Параметр матрицы формата : Выборочная
Идентификатор кодека : XVID
Идентификатор кодека/Подсказка : XviD
Продолжительность : 1 ч. 58 м.
Битрейт : 1374 Кбит/сек
Ширина : 720 пикселей
Высота : 304 пикселя
Соотношение сторон : 2,35:1
Частота кадров : 23,976 кадра/сек
Цветовое пространство : YUV
Субдискретизация насыщенности : 4:2:0
Битовая глубина : 8 бит
Тип развёртки : Прогрессивная
Метод сжатия : С потерями
Бит/(Пиксели*Кадры) : 0.262
Размер потока : 1,13 Гбайт (78%)
Библиотека кодирования : XviD 67
Аудио
Идентификатор : 1
Формат : AC-3
Формат/Информация : Audio Coding 3
Расширение режима : CM (complete main)
Параметр Endianness формата : Big
Идентификатор кодека : 2000
Продолжительность : 1 ч. 58 м.
Вид битрейта : Постоянный
Битрейт : 384 Кбит/сек
Каналы : 6 каналов
Расположение каналов : Front: L C R, Side: L R, LFE
Частота : 48,0 КГц
Метод сжатия : С потерями
Размер потока : 324 Мбайт (22%)
Выравнивание : Разделение по промежуткам
Продолжительность промежутка : 42 мс. (1,00 видеокадр)
Время предзагрузки промежутка : 500 мс.

Пример субтитров

Код:56
00:04:07,954 --> 00:04:10,239
Ой, это место
настоящий лабиринт.
57
00:04:10,259 --> 00:04:11,723
Где наша карта?
58
00:04:15,169 --> 00:04:16,841
Мы определённо у цели.
59
00:04:16,872 --> 00:04:17,492
Ты готова?
60
00:04:17,524 --> 00:04:18,981
Я готова, папочка.
61
00:04:19,043 --> 00:04:19,833
Уверенна?
62
00:04:19,856 --> 00:04:20,856
Как только мы попадём внутрь,
63
00:04:20,879 --> 00:04:22,199
любое проявление сомнения или страха,
64
00:04:22,214 --> 00:04:22,993
и нам конец.
-При появлении РУССКОЙ ОЗВУЧКИ к данному фильму рип будет перезалит!-
[cybertorrent.ru].t57174.torrent 
Торрент: Зарегистрирован [ 2018-10-03 16:55 ] · 1B5B9F0D4D2805CD3947ECF92E122AAC92EDD771

Скачать .torrent

Скачать

15 KB

Статус: проверено
Скачан: 0 раз
Размер: 1,46 GB
terms.php
[Профиль] [ЛС]
Показать сообщения:    
Ответить на тему

Текущее время: 17-Фев 08:16

Часовой пояс: UTC + 3



Вы не можете начинать темы
Вы не можете отвечать на сообщения
Вы не можете редактировать свои сообщения
Вы не можете удалять свои сообщения
Вы не можете голосовать в опросах
Вы не можете прикреплять файлы к сообщениям
Вы можете скачивать файлы