BitTorrent клиенты



Per Gessle (Roxette)- En Vacker Kvall - Live Pa Brottet Halmstad 11 Augusti 2017 [2018, Pop Rock, DVDRip]

Ответить на тему
Статистика раздачи
Размер:  1,45 GB   |    Зарегистрирован:  4 месяца 12 дней   |    Скачан:  1 раз

Полного источника не было: 2 месяца 28 дней

 
   
 
 
Автор Сообщение

Олег ®

Пол: Не указан

Стаж: 1 год

Сообщений: 326

Создавать темы 04-Окт-2018 16:09

[Цитировать]

Per Gessle (Roxette)- En Vacker Kvall - Live Pa Brottet Halmstad 11 Augusti 2017 Жанр: Pop Rock
Продолжительность: 01:42:50
Год выпуска: 2018
Описание: Концертное видео Per Gessle - En Vacker Kvall - Live Pa Brottet Halmstad 11 Augusti 2017.
Пер Хо́кан Ге́ссле (швед. Per Håkan Gessle; 12 января 1959 года, Хальмстад, Халланд, Швеция) — шведский музыкант-мультиинструменталист, композитор, продюсер, автор более 1000 песен и вокалист групп Gyllene Tider, Roxette и других.
Основатель групп Gyllene Tider в 1979 году и дуэта Roxette в 1986 году (вместе с подругой и певицей Мари Фредрикссон). Также работал вместе со шведским певцом Ниссе Хельбергом[sv] в проекте «The Lonely Boys[en]». Другие группы Пера: Son of a Plumber, Mazarinerna (неофициальное название), Pepcis, Grape Rock, Peter Pop & The Helicopters, Spannande Ostar и Per’s Garage[4].
За свою 30-летнюю карьеру, начав играть гаражный рок в 1978 году, Пер успел поэкспериментировать с разными стилями: рок, поп-рок, поп, евродэнс, easy listening, блюз, кантри, европоп и другими. Добившись признания в Швеции, он стал одним из самых популярных исполнителей за всю историю королевства — ведущие таблоиды страны не раз называли его «королём поп-музыки». Одним из поклонников творчества Пера является сам король Швеции Карл XVI Густав, а также его дочь, кронпринцесса Виктория. Пер Гессле также включён в путеводитель, который издаёт министерство туризма Швеции. Шведская пресса даже сравнивает его с немецким поэтом Гёте.
Сольная карьера Пера, начавшаяся в 1978 году, продолжается до сих пор. Отметив 20-летие Roxette в 2006 году и 30-летие Gyllene Tider в 2009 году, он продолжает выступать.
Деятельность Пера Гессле не ограничивается записью музыкальных альбомов. Он активно продюсирует песни молодых исполнителей, является совладельцем отеля, коллекционирует гитары, спортивные автомобили и произведения искусства, с 2008 года ведёт собственную передачу на американской спутниковой радиостанции, а также выпускает серию вин под своим именем: «Per Gessle Selection».
( материалом поделился D-Omen )
Треклист:
01. På promenad genom stan
02. Vilket håll du än går
03. juni, juli, augusti
04. Det hjärta som brinner
05. Segla på ett moln / Första pris
06. It Must Have Been Love
07. Småstadsprat (DUETT MED LARS WINNERBÄCK)
08. Honung och guld (DUETT MED LARS WINNERBÄCK)
09. Kung av sand
10. Här kommer alla känslorna (på en och samma gång)/Flickan i en Cole Porter-sång
11. Ljudet av ett annat hjärta
12. Spegelboll
13. GÅ & fiska!
14. The Look
15. Queen Of Rain / Varmt Igen
16. Tycker om du tar på mej
17. (Hon vill ha) Puls
18. Joyride
19. Sommartider
20. Min plats

Доп. информация: по видео

скрытый текст

Полное имя Per Gessle - En Vacker Kvall - Live Pa Brottet Halmstad 11 Augusti 2017.avi
Формат : AVI
Формат/Информация : Audio Video Interleave
Профиль формата : OpenDML
Размер файла : 1,45 Гбайт
Продолжительность : 1 ч. 42 м.
Общий поток : 2022 Кбит/сек
Программа кодирования : Lavf51.12.1
Видео
Идентификатор : 0
Формат : xvid
Идентификатор кодека : xvid
Продолжительность : 1 ч. 42 м.
Битрейт : 1818 Кбит/сек
Ширина : 688 пикселей
Высота : 384 пикселя
Соотношение сторон : 16:9
Частота кадров : 25,000 кадров/сек
Бит/(Пиксели*Кадры) : 0.275
Размер потока : 1,31 Гбайт (90%)
Аудио
Идентификатор : 1
Формат : AC-3
Формат/Информация : Audio Coding 3
Расширение режима : CM (complete main)
Параметр Endianness формата : Big
Идентификатор кодека : 2000
Продолжительность : 1 ч. 42 м.
Вид битрейта : Постоянный
Битрейт : 192 Кбит/сек
Каналы : 2 канала
Расположение каналов : Front: L R
Частота : 48,0 КГц
Битовая глубина : 16 бит
Метод сжатия : С потерями
Размер потока : 141 Мбайт (9%)
Выравнивание : Соединение по промежуткам
Продолжительность промежутка : 32 мс. (0,80 видеокадр)
Время предзагрузки промежутка : 32 мс.
Источник: собственный рип
Cсылка http://rutracker.org/forum/viewtopic.php?sid=uE8NljwV&t=5586485
Качество: DVDRip
Контейнер: AVI
Видео кодек: XviD
Аудио кодек: AC3
Видео: 688x384 (1.79:1), 25 fps, XviD build 63 ~1823 kbps avg, 0.28 bit/pixel
Аудио: 48 kHz, AC3 Dolby Digital, 2/0 (L,R) ch, ~192.00 kbps avg

Скриншоты

Мои другие раздачи 1 - http://rutracker.org/forum/tracker.php?rid=14861751
Мои другие раздачи 2- http://rutracker.org/forum/tracker.php?rid=26740408Приятного просмотра!
[cybertorrent.ru].t57207.torrent 
Торрент: Зарегистрирован [ 2018-10-04 16:10 ] · FA40C246486C2801525286C50213F8B55ABEFC17

Скачать .torrent

Скачать

15 KB

Статус: проверено
Скачан: 1 раз
Размер: 1,45 GB
terms.php
[Профиль] [ЛС]
Показать сообщения:    
Ответить на тему

Текущее время: 17-Фев 08:17

Часовой пояс: UTC + 3



Вы не можете начинать темы
Вы не можете отвечать на сообщения
Вы не можете редактировать свои сообщения
Вы не можете удалять свои сообщения
Вы не можете голосовать в опросах
Вы не можете прикреплять файлы к сообщениям
Вы можете скачивать файлы