Статистика раздачи
Размер:  10,38 GB   |    Зарегистрирован:  2 месяца 11 дней   |    Скачан:  0 раз

Полного источника не было: Никогда

 
   
 
 

lika ®

Пол:
Не указан
Стаж:
7 месяцев 8 дней
Сообщений:
366

Космический пират Харлок / Space Pirate Captain Harlock

-
Страна: Япония, США, Франция
Год выпуска: 2013 г.
Жанр: фантастика, боевик, приключения
Тип: Movie
Продолжительность: 115 мин.
Режиссер: Синдзи Арамаки
Студия: Toei Animation Company
Роли озвучивали: Сюн Огури, Аои Ю, Джессика Бун, Аяно Фукуда, Арата Фурута, Адам Гиббс, Киёси Кобаяси, Дэвид Матранга, Харума Миура, Морикава Тосиюки
Роли дублировали: Александр Гаврилин, Екатерина Семенова, Евгения Ваган, Александр Головчанский, Александр Дзюба, Александр Новиков, Андрей Гриневич, Владимир Герасимов, Илья Хвостиков, Ирина Киреева, Константин Карасик, Олег Щербинин, Ольга Зверева
-
Перевод:
Cубтитры: GMC & Shimizu
Переводчик: Sovereign
Редактор: Fatotaku
Оформление: [Dark]Scorpio
Корректура: Jarly
Субтитры: Lakfakalle
Переводчик: Abliarsar
Редактирование: Cynda, Walter_Stolz
Правка: Walter_Stolz
-
world-art | AniDB | MyAnimeList | IMDb | KinoPoisk
-
Описание : Далекое будущее. Преступная корпорация Гайя стала злейшим врагом Земли, отобрав у людей все: свободу, дом, будущее… Казалось, что надежды на спасение нет… Но, появился Он — космический пират Харлок, капитан призрачного корабля Аркадия. Беглец, готовый сражаться за Землю. Кто Он, герой или преступник?..
-
Автор рипа и релиза : Страник 2.0
Качество : BDRip (Исходник - BDRemux [SPACE_PIRATE_CAPTAIN_HARLOCK_2013_HDCLUB]
Тип релиза: Без хардсаба
Формат видео : MKV
Наличие линковки: Нет
Видео : AVC, 1920x800 (2.40:1), 23.976 fps, 9500 Kbps 8bit
Аудио 1: Русский, AC3, 384 Кбит/с, 48.0 Hz, 6 ch (в составе контейнера) [Многоголосый, дублированный - SDI Media Russia] + сабы на доп. сцены
Аудио 2: Русский, DTS, 1509 Кбит/с, 48.0 Hz, 6 ch [Одноголосый - Юрий Живов] (в составе контейнера)
Аудио 3: Японский, DTS, 1509 Кбит/с, 48.0 Hz, 6 ch [Оригинал] (в составе контейнера)
Субтитры 1(SRT): Русские [Полные+Форсированные] Lakfakalle (в составе контейнера)
Субтитры 2(ASS): Русские [Полные+Форсированные] GMC & Shimizu (в составе контейнера)
Субтитры 3(SRT): Английские [с BD] (в составе контейнера)
-

Скриншоты


MediaInfo

General
Unique ID : 226950674630125108326737505104373339069 (0xAABD1C2A115DC3BFACB46920480DD3BD)
Complete name : E:/Torrent_2/Space Pirate Captain Harlock (2013, BDRip-1080p, RUS JAP+SUB [Rus Eng]) [Stranik 2.0] v2.mkv
Format : Matroska
Format version : Version 2
File size : 10.4 GiB
Duration : 1h 55mn
Overall bit rate : 12.9 Mbps
Encoded date : UTC 2017-12-24 09:06:15
Writing application : mkvmerge v5.5.0 ('Healer') built on Apr 6 2012 21:43:24
Writing library : libebml v1.2.3 + libmatroska v1.3.0
Video #1
ID : 1
Format : AVC
Format/Info : Advanced Video Codec
Format profile : High@L5.0
Format settings, CABAC : Yes
Format settings, ReFrames : 6 frames
Codec ID : V_MPEG4/ISO/AVC
Duration : 1h 55mn
Bit rate : 9 500 Kbps
Width : 1 920 pixels
Height : 800 pixels
Display aspect ratio : 2.40:1
Frame rate mode : Constant
Frame rate : 23.976 fps
Color space : YUV
Chroma subsampling : 4:2:0
Bit depth : 8 bits
Scan type : Progressive
Bits/(Pixel*Frame) : 0.258
Stream size : 7.43 GiB (72%)
Writing library : x264 core 142 r2431 ac76440
Encoding settings : cabac=1 / ref=6 / deblock=1:1:1 / analyse=0x3:0x113 / me=hex / subme=11 / psy=1 / psy_rd=0.40:0.00 / mixed_ref=1 / me_range=16 / chroma_me=1 / trellis=2 / 8x8dct=1 / cqm=0 / deadzone=21,11 / fast_pskip=1 / chroma_qp_offset=-2 / threads=3 / lookahead_threads=1 / sliced_threads=0 / nr=0 / decimate=1 / interlaced=0 / bluray_compat=0 / constrained_intra=0 / bframes=6 / b_pyramid=2 / b_adapt=1 / b_bias=0 / direct=1 / weightb=1 / open_gop=0 / weightp=2 / keyint=240 / keyint_min=23 / scenecut=40 / intra_refresh=0 / rc_lookahead=40 / rc=2pass / mbtree=1 / bitrate=9500 / ratetol=1.0 / qcomp=0.60 / qpmin=0 / qpmax=69 / qpstep=4 / cplxblur=20.0 / qblur=0.5 / ip_ratio=1.40 / aq=1:0.60
Language : Japanese
Default : Yes
Forced : No
Audio #2
ID : 2
Format : AC-3
Format/Info : Audio Coding 3
Mode extension : CM (complete main)
Format settings, Endianness : Big
Codec ID : A_AC3
Duration : 1h 55mn
Bit rate mode : Constant
Bit rate : 384 Kbps
Channel(s) : 6 channels
Channel positions : Front: L C R, Side: L R, LFE
Sampling rate : 48.0 KHz
Bit depth : 16 bits
Compression mode : Lossy
Stream size : 316 MiB (3%)
Title : DUB [SDI Media Russia]
Language : Russian
Default : Yes
Forced : No
Audio #3
ID : 3
Format : DTS
Format/Info : Digital Theater Systems
Mode : 16
Format settings, Endianness : Big
Codec ID : A_DTS
Duration : 1h 55mn
Bit rate mode : Constant
Bit rate : 1 509 Kbps
Channel(s) : 6 channels
Channel positions : Front: L C R, Side: L R, LFE
Sampling rate : 48.0 KHz
Bit depth : 24 bits
Compression mode : Lossy
Stream size : 1.21 GiB (12%)
Title : VO [Ю. Живов]
Language : Russian
Default : No
Forced : No
Audio #4
ID : 4
Format : DTS
Format/Info : Digital Theater Systems
Mode : 16
Format settings, Endianness : Big
Codec ID : A_DTS
Duration : 1h 55mn
Bit rate mode : Constant
Bit rate : 1 509 Kbps
Channel(s) : 6 channels
Channel positions : Front: L C R, Side: L R, LFE
Sampling rate : 48.0 KHz
Bit depth : 24 bits
Compression mode : Lossy
Stream size : 1.21 GiB (12%)
Title : Original
Language : Japanese
Default : No
Forced : No
Text #5
ID : 5
Format : UTF-8
Codec ID : S_TEXT/UTF8
Codec ID/Info : UTF-8 Plain Text
Title : Lakfakalle [Fors]
Language : Russian
Default : Yes
Forced : No
Text #6
ID : 6
Format : UTF-8
Codec ID : S_TEXT/UTF8
Codec ID/Info : UTF-8 Plain Text
Title : Lakfakalle
Language : Russian
Default : No
Forced : No
Text #7
ID : 7
Format : ASS
Codec ID : S_TEXT/ASS
Codec ID/Info : Advanced Sub Station Alpha
Compression mode : Lossless
Title : GMC & Shimizu [Fors]
Language : Russian
Default : No
Forced : No
Text #8
ID : 8
Format : ASS
Codec ID : S_TEXT/ASS
Codec ID/Info : Advanced Sub Station Alpha
Compression mode : Lossless
Title : GMC & Shimizu
Language : Russian
Default : No
Forced : No
Text #9
ID : 9
Format : UTF-8
Codec ID : S_TEXT/UTF8
Codec ID/Info : UTF-8 Plain Text
Title : BD
Language : English
Default : No
Forced : No

Отличия от других раздач

Nacohara - http://cybertorrent.ru/viewtopic.php?t=4990917 - Наличие русской озвучки
Mesaki-san - http://cybertorrent.ru/viewtopic.php?t=5246665 - BDRip 1080p, наличие оригинал. озвучки + сабы
Моя максимальная скорость отдачи 100КБ/c
Раздаю с 7:00 до 00:00 по Москве
[cybertorrent.ru].t57221.torrent 
Торрент: Зарегистрирован [ 2018-07-12 10:14 ] · 8D78FC0D4B6E963EDBABBC5C5A36F52FA095F9DA

Скачать .torrent

Скачать

26 KB

Статус: проверено
Скачан: 0 раз
Размер: 10,38 GB
Профиль [ЛС]
Показать сообщения:    

Текущее время: 23-Сен 11:56

Часовой пояс: UTC ± 0



Вы не можете начинать темы
Вы не можете отвечать на сообщения
Вы не можете редактировать свои сообщения
Вы не можете удалять свои сообщения
Вы не можете голосовать в опросах
Вы не можете прикреплять файлы к сообщениям
Вы можете скачивать файлы
Torrents24.ru открытый BitTorrent Torrents24.pl открытый BitTorrent CyberTorrent.ru открытый BitTorrent BtList.ru рейтинг BitTorrent трекеров Яндекс.Метрика