Статистика раздачи
Размер:  4,38 GB   |    Зарегистрирован:  3 дня   |    Скачан:  0 раз

Полного источника не было: Никогда

 
   
 
 

zaja ®

Пол:
Не указан
Стаж:
5 месяцев
Сообщений:
46

ЛЕГО Ниндзяго Фильм / The LEGO Ninjago Movie
Страна: США, Дания
Студия: LEGO System A/S, Lin Pictures, Lord Miller, RatPac-Dune Entertainment
Жанр: мультфильм, боевик, комедия, приключения, семейный
Год выпуска: 2017
Продолжительность: 01:41:26--Перевод: дубляж
Субтитры: русские (на надписи, полные), английские
Оригинальная аудиодорожка: английская--Режиссер: Чарли Бин / Charlie Bean, Пол Фишер / Paul Fisher, Боб Логан / Bob Logan--В ролях: Джеки Чан, Дэйв Франко, Фред Армисен, Кумэйл Нанджиани, Майкл Пенья, Эбби Джейкобсон, Зак Вудс, Дэвид Берроуз, Джастин Теру--Описание: Ниндзяго-сити призывает на свою защиту юного Ллойда, он же Зеленый ниндзя, и его друзей, тайных воинов и Великих мастеров ЛЕГО. Под предводительством кунг-фу мастера Ву, столь же умного, сколь и остроумного, они должны одолеть злобного диктатора Гармадона, Самого Злодейского Злодея, который оказывается отцом Ллойда. Роботы против роботов, сын против отца; эпическое столкновение проверит на прочность эту неистовую, но не самую дисциплинированную команду современных ниндзя, которые должны научиться усмирять свое самомнение, чтобы по полной проявить свои способности.--Доп. информация: Навигация по главам присутствует.--Сэмпл: https://yadi.sk/i/VsJhEV4s3XkwWu--Тип релиза: BDRip 720p
Контейнер: MKV
Видео кодек: H.264
Аудио кодек: DTS, AC-3
Видео: MPEG4/AVC, 2.40:1, 23.976 (24000/1001) FPS, 1280x536p, 4225 kb/s
Аудио 1: RUS / AC-3, 48.0 kHz, 5.1, 448 kb/s | дубляж [лицензия Blu-ray disc 1080p EUR]
Аудио 2: ENG / DTS, 48.0 kHz, 5.1, 1509 kb/s | оригинал [Blu-ray disc 1080p EUR]
Формат субтитров: softsub (SRT)
Релиз:

MediaInfo

x264 [info]: profile High, level 4.1
x264 [info]: frame I:1671 Avg QP:13.89 size:114605
x264 [info]: frame P:34485 Avg QP:15.87 size: 48103
x264 [info]: frame B:109777 Avg QP:17.47 size: 12428
x264 [info]: consecutive B-frames: 3.2% 2.4% 11.2% 32.5% 16.2% 22.0% 5.1% 4.3% 3.0%
Формат : Matroska
Версия формата : Version 4 / Version 2
Размер файла : 4,38 Гбайт
Продолжительность : 1 ч. 41 м.
Общий поток : 6185 Кбит/сек
Название фильма : The.LEGO.Ninjago.Movie.2017.BDREMUX.1080p - rip from RUTRACKER
Дата кодирования : UTC 2018-06-11 13:39:01
Программа кодирования : mkvmerge v24.0.0 ('Beyond The Pale') 32-bit
Библиотека кодирования : libebml v1.3.6 + libmatroska v1.4.9
Обложка : Yes
Attachments : cover.jpg
Видео
Идентификатор : 1
Формат : AVC
Формат/Информация : Advanced Video Codec
Профиль формата : High@L4.1
Настройки формата : CABAC / 12 Ref Frames
Параметр CABAC формата : Да
Параметр RefFrames формата : 12 кадров
Идентификатор кодека : V_MPEG4/ISO/AVC
Продолжительность : 1 ч. 41 м.
Битрейт : 4225 Кбит/сек
Ширина : 1280 пикселей
Высота : 536 пикселей
Соотношение сторон : 2,40:1
Режим частоты кадров : Постоянный
Частота кадров : 23,976 (24000/1001) кадра/сек
Цветовое пространство : YUV
Субдискретизация насыщенности : 4:2:0
Битовая глубина : 8 бит
Тип развёртки : Прогрессивная
Бит/(Пиксели*Кадры) : 0.257
Размер потока : 2,99 Гбайт (68%)
Заголовок : The.LEGO.Ninjago.Movie.2017.BDREMUX.1080p - ripped by <>
Библиотека кодирования : x264 core 152 r2851 ba24899
Настройки программы : cabac=1 / ref=12 / deblock=1:-3:-3 / analyse=0x3:0x113 / me=umh / subme=10 / psy=1 / psy_rd=1.00:0.00 / mixed_ref=1 / me_range=24 / chroma_me=1 / trellis=2 / 8x8dct=1 / cqm=0 / deadzone=21,11 / fast_pskip=1 / chroma_qp_offset=-2 / threads=6 / lookahead_threads=1 / sliced_threads=0 / nr=0 / decimate=0 / interlaced=0 / bluray_compat=0 / constrained_intra=0 / bframes=8 / b_pyramid=2 / b_adapt=2 / b_bias=0 / direct=1 / weightb=1 / open_gop=0 / weightp=2 / keyint=250 / keyint_min=23 / scenecut=40 / intra_refresh=0 / rc_lookahead=60 / rc=crf / mbtree=0 / crf=15.1 / qcomp=0.64 / qpmin=0 / qpmax=69 / qpstep=4 / vbv_maxrate=62500 / vbv_bufsize=78125 / crf_max=0.0 / nal_hrd=none / filler=0 / ip_ratio=1.40 / pb_ratio=1.30 / aq=1:0.75
Default : Да
Forced : Нет
Аудио #1
Идентификатор : 2
Формат : AC-3
Формат/Информация : Audio Coding 3
Идентификатор кодека : A_AC3
Продолжительность : 1 ч. 41 м.
Вид битрейта : Постоянный
Битрейт : 448 Кбит/сек
Каналы : 6 каналов
Расположение каналов : Front: L C R, Side: L R, LFE
Частота : 48,0 КГц
Частота кадров : 31,250 кадров/сек (1536 SPF)
Битовая глубина : 16 бит
Метод сжатия : С потерями
Размер потока : 325 Мбайт (7%)
Заголовок : русский дубляж [лицензия Blu-ray disc 1080p EUR]
Язык : Russian
ServiceKind/String : Complete Main
Default : Да
Forced : Нет
Аудио #2
Идентификатор : 3
Формат : DTS
Формат/Информация : Digital Theater Systems
Идентификатор кодека : A_DTS
Продолжительность : 1 ч. 41 м.
Вид битрейта : Постоянный
Битрейт : 1509 Кбит/сек
Каналы : 6 каналов
Расположение каналов : Front: L C R, Side: L R, LFE
Частота : 48,0 КГц
Частота кадров : 93,750 кадра/сек (512 SPF)
Битовая глубина : 24 бит
Метод сжатия : С потерями
Размер потока : 1,07 Гбайт (24%)
Заголовок : английский [оригинал Blu-ray disc 1080p EUR]
Язык : English
Default : Нет
Forced : Нет
Текст #1
Идентификатор : 4
Формат : UTF-8
Идентификатор кодека : S_TEXT/UTF8
Идентификатор кодека/Информация : UTF-8 Plain Text
Продолжительность : 1 ч. 12 м.
Битрейт : 1 бит/сек
ElementCount : 20
Размер потока : 770 байт (0%)
Заголовок : русские (на надписи)
Язык : Russian
Default : Нет
Forced : Нет
Текст #2
Идентификатор : 5
Формат : UTF-8
Идентификатор кодека : S_TEXT/UTF8
Идентификатор кодека/Информация : UTF-8 Plain Text
Продолжительность : 1 ч. 40 м.
Битрейт : 123 бит/сек
ElementCount : 1783
Размер потока : 91,4 Кбайт (0%)
Заголовок : русские (полные)
Язык : Russian
Default : Нет
Forced : Нет
Текст #3
Идентификатор : 6
Формат : UTF-8
Идентификатор кодека : S_TEXT/UTF8
Идентификатор кодека/Информация : UTF-8 Plain Text
Продолжительность : 1 ч. 35 м.
Битрейт : 80 бит/сек
ElementCount : 2043
Размер потока : 55,8 Кбайт (0%)
Заголовок : английские
Язык : Russian
Default : Нет
Forced : Нет
Меню
00:00:00.000 : :Chapter 01
00:11:44.746 : :Chapter 02
00:23:32.453 : :Chapter 03
00:31:09.785 : :Chapter 04
00:40:53.368 : :Chapter 05
00:53:48.392 : :Chapter 06
01:03:05.532 : :Chapter 07
01:16:07.688 : :Chapter 08
01:25:13.608 : :Chapter 09
01:32:10.900 : :Chapter 10

Скриншоты

Сравнение

Source------------------------------LION1234
Замена звука на лицензионный.
[cybertorrent.ru].t57225.torrent 
Торрент: Зарегистрирован [ 2018-07-12 10:14 ] · A2F2FCADA7921E16EFEC673233268E8117814D9B

Скачать .torrent

Скачать

11 KB

Статус: проверено
Скачан: 0 раз
Размер: 4,38 GB
Профиль [ЛС]
Показать сообщения:    

Текущее время: 16-Июл 07:00

Часовой пояс: UTC ± 0



Вы не можете начинать темы
Вы не можете отвечать на сообщения
Вы не можете редактировать свои сообщения
Вы не можете удалять свои сообщения
Вы не можете голосовать в опросах
Вы не можете прикреплять файлы к сообщениям
Вы можете скачивать файлы