BitTorrent клиенты



(Pop/Rock) [CD] Hooligans - Társasjáték (Tarsasjatek) - 2014, FLAC (tracks+.cue), lossless

Ответить на тему
Статистика раздачи
Размер:  328 MB   |    Зарегистрирован:  4 месяца 12 дней   |    Скачан:  0 раз

Полного источника не было: Никогда

 
   
 
 
Автор Сообщение

folk ®

Пол: Не указан

Стаж: 11 месяцев 17 дней

Сообщений: 368

Создавать темы 04-Окт-2018 16:08

[Цитировать]

Hooligans / Társasjáték(2014)
Жанр: Pop/Rock
Носитель: CD
Страна-производитель диска (релиза): Hungary
Год издания: 2014
Издатель (лейбл): HEARHU
Номер по каталогу: 048
Страна исполнителя (группы): Hungary
Аудиокодек: FLAC (*.flac)
Тип рипа: tracks+.cue
Битрейт аудио: lossless
Продолжительность: 00:40:05
Источник (релизер): Naftamusic
Наличие сканов в содержимом раздачи: да
Корректность рипа: В оригинале не было применено сжатие при конвертировании во Флак (FLAC Level 0). Для приведения в соответствие правилам пережато во FLAC Level 5 с сохранением тэгов

01 - Eljátszott gyémánt (duett Kalapács Józseffel, közreműködik Nagyfi László) (00:03:28)
02 - Halálos csók (duett Janicsák Vecával) (00:03:19)
03 - Sex & KV (duett Bornai Tiborral) (00:03:27)
04 - Legyen valami (duett Ganxsta Zolee-val) (00:04:38)
05 - Végső játék (duett Wolf Katival) (00:02:59)
06 - Vér nem válik vízzé (közreműködik az Animal Cannibals) (00:03:57)
07 - Mindörökké (duett Nagy Feróval) (00:03:49)
08 - Szívből kell (duett Kowalsky-val) (00:03:01)
09 - Királylány (duett Király Lindával) (00:04:51)
10 - Hol a nő (közreműködik a 100 Folk Celsius) (00:03:18)
11 - Paradicsom (Lotfi Begi remix) (00:03:17)

Лог создания рипа

Exact Audio Copy V1.0 beta 3 from 29. August 2011
EAC extraction logfile from 6. November 2014, 22:39
Hooligans / Társasjáték
Used drive : PLEXTOR DVDR PX-891SA Adapter: 1 ID: 0
Read mode : Secure
Utilize accurate stream : Yes
Defeat audio cache : Yes
Make use of C2 pointers : No
Read offset correction : 6
Overread into Lead-In and Lead-Out : No
Fill up missing offset samples with silence : Yes
Delete leading and trailing silent blocks : No
Null samples used in CRC calculations : Yes
Used interface : Native Win32 interface for Win NT & 2000
Gap handling : Appended to previous track
Used output format : User Defined Encoder
Selected bitrate : 1024 kBit/s
Quality : High
Add ID3 tag : No
Command line compressor : C:\Program Files (x86)\Exact Audio Copy\FLAC\FLAC.EXE
Additional command line options : -0 -V -T "ARTIST=%artist%" -T "TITLE=%title%" -T "ALBUM=%albumtitle%" -T "DATE=%year%" -T "TRACKNUMBER=%tracknr%" -T "TOTALTRACKS=%numtracks%" -T "GENRE=%genre%" -T "COMMENT=Naftamusic Release!" %source%
TOC of the extracted CD
Track | Start | Length | Start sector | End sector
---------------------------------------------------------
1 | 0:00.00 | 3:27.72 | 0 | 15596
2 | 3:27.72 | 3:19.06 | 15597 | 30527
3 | 6:47.03 | 3:26.73 | 30528 | 46050
4 | 10:14.01 | 4:38.33 | 46051 | 66933
5 | 14:52.34 | 2:58.56 | 66934 | 80339
6 | 17:51.15 | 3:57.14 | 80340 | 98128
7 | 21:48.29 | 3:49.14 | 98129 | 115317
8 | 25:37.43 | 3:00.57 | 115318 | 128874
9 | 28:38.25 | 4:51.14 | 128875 | 150713
10 | 33:29.39 | 3:18.31 | 150714 | 165594
11 | 36:47.70 | 3:16.61 | 165595 | 180355
Track 1
Filename E:\Nafta Releases\Hooligans - Társasjáték (2014)[FLAC] - Naftamusic\01 - Eljátszott gyémánt (duett Kalapács Józseffel, közreműködik Nagyfi László).wav
Pre-gap length 0:00:02.00
Peak level 100.0 %
Extraction speed 1.8 X
Track quality 100.0 %
Test CRC 08CE6811
Copy CRC 08CE6811
Track not present in AccurateRip database
Copy OK
Track 2
Filename E:\Nafta Releases\Hooligans - Társasjáték (2014)[FLAC] - Naftamusic\02 - Halálos csók (duett Janicsák Vecával).wav
Peak level 100.0 %
Extraction speed 2.0 X
Track quality 100.0 %
Test CRC 92B1FE47
Copy CRC 92B1FE47
Track not present in AccurateRip database
Copy OK
Track 3
Filename E:\Nafta Releases\Hooligans - Társasjáték (2014)[FLAC] - Naftamusic\03 - Sex & KV (duett Bornai Tiborral).wav
Peak level 100.0 %
Extraction speed 2.1 X
Track quality 100.0 %
Test CRC 8B932AE3
Copy CRC 8B932AE3
Track not present in AccurateRip database
Copy OK
Track 4
Filename E:\Nafta Releases\Hooligans - Társasjáték (2014)[FLAC] - Naftamusic\04 - Legyen valami (duett Ganxsta Zolee-val).wav
Peak level 100.0 %
Extraction speed 2.4 X
Track quality 100.0 %
Test CRC 979CD84C
Copy CRC 979CD84C
Track not present in AccurateRip database
Copy OK
Track 5
Filename E:\Nafta Releases\Hooligans - Társasjáték (2014)[FLAC] - Naftamusic\05 - Végső játék (duett Wolf Katival).wav
Peak level 100.0 %
Extraction speed 2.4 X
Track quality 100.0 %
Test CRC DE27608D
Copy CRC DE27608D
Track not present in AccurateRip database
Copy OK
Track 6
Filename E:\Nafta Releases\Hooligans - Társasjáték (2014)[FLAC] - Naftamusic\06 - Vér nem válik vízzé (közreműködik az Animal Cannibals).wav
Peak level 100.0 %
Extraction speed 2.7 X
Track quality 100.0 %
Test CRC 2CF21A6E
Copy CRC 2CF21A6E
Track not present in AccurateRip database
Copy OK
Track 7
Filename E:\Nafta Releases\Hooligans - Társasjáték (2014)[FLAC] - Naftamusic\07 - Mindörökké (duett Nagy Feróval).wav
Peak level 100.0 %
Extraction speed 2.8 X
Track quality 100.0 %
Test CRC 6523E10F
Copy CRC 6523E10F
Track not present in AccurateRip database
Copy OK
Track 8
Filename E:\Nafta Releases\Hooligans - Társasjáték (2014)[FLAC] - Naftamusic\08 - Szívből kell (duett Kowalsky-val).wav
Peak level 100.0 %
Extraction speed 2.8 X
Track quality 100.0 %
Test CRC 883072A0
Copy CRC 883072A0
Track not present in AccurateRip database
Copy OK
Track 9
Filename E:\Nafta Releases\Hooligans - Társasjáték (2014)[FLAC] - Naftamusic\09 - Királylány (duett Király Lindával).wav
Peak level 100.0 %
Extraction speed 2.4 X
Track quality 99.9 %
Test CRC E98CB5FF
Copy CRC E98CB5FF
Track not present in AccurateRip database
Copy OK
Track 10
Filename E:\Nafta Releases\Hooligans - Társasjáték (2014)[FLAC] - Naftamusic\10 - Hol a nő (közreműködik a 100 Folk Celsius).wav
Peak level 100.0 %
Extraction speed 3.1 X
Track quality 100.0 %
Test CRC 3C488B7B
Copy CRC 3C488B7B
Track not present in AccurateRip database
Copy OK
Track 11
Filename E:\Nafta Releases\Hooligans - Társasjáték (2014)[FLAC] - Naftamusic\11 - Paradicsom (Lotfi Begi remix).wav
Peak level 97.7 %
Extraction speed 3.2 X
Track quality 100.0 %
Test CRC E49D7CE2
Copy CRC E49D7CE2
Track not present in AccurateRip database
Copy OK
None of the tracks are present in the AccurateRip database
No errors occurred
End of status report
==== Log checksum C95E14603CF817E46714F2210A9DF6E292EAFA727C5C6AFC0EE18D141AA3E0FC ====

Содержание индексной карты (.CUE)

REM GENRE Rock
REM DATE 2014
REM DISCID 7909640B
REM COMMENT "ExactAudioCopy v1.0b3"
PERFORMER "Hooligans"
TITLE "Társasjáték"
FILE "01 - Eljátszott gyémánt (duett Kalapács Józseffel, közreműködik Nagyfi László).wav" WAVE
TRACK 01 AUDIO
TITLE "Eljátszott gyémánt (duett Kalapács Józseffel, közreműködik Nagyfi László)"
PERFORMER "Hooligans"
INDEX 01 00:00:00
FILE "02 - Halálos csók (duett Janicsák Vecával).wav" WAVE
TRACK 02 AUDIO
TITLE "Halálos csók (duett Janicsák Vecával)"
PERFORMER "Hooligans"
INDEX 01 00:00:00
FILE "03 - Sex & KV (duett Bornai Tiborral).wav" WAVE
TRACK 03 AUDIO
TITLE "Sex & KV (duett Bornai Tiborral)"
PERFORMER "Hooligans"
INDEX 01 00:00:00
FILE "04 - Legyen valami (duett Ganxsta Zolee-val).wav" WAVE
TRACK 04 AUDIO
TITLE "Legyen valami (duett Ganxsta Zolee-val)"
PERFORMER "Hooligans"
INDEX 01 00:00:00
FILE "05 - Végső játék (duett Wolf Katival).wav" WAVE
TRACK 05 AUDIO
TITLE "Végső játék (duett Wolf Katival)"
PERFORMER "Hooligans"
INDEX 01 00:00:00
FILE "06 - Vér nem válik vízzé (közreműködik az Animal Cannibals).wav" WAVE
TRACK 06 AUDIO
TITLE "Vér nem válik vízzé (közreműködik az Animal Cannibals)"
PERFORMER "Hooligans"
INDEX 01 00:00:00
FILE "07 - Mindörökké (duett Nagy Feróval).wav" WAVE
TRACK 07 AUDIO
TITLE "Mindörökké (duett Nagy Feróval)"
PERFORMER "Hooligans"
INDEX 01 00:00:00
FILE "08 - Szívből kell (duett Kowalsky-val).wav" WAVE
TRACK 08 AUDIO
TITLE "Szívből kell (duett Kowalsky-val)"
PERFORMER "Hooligans"
INDEX 01 00:00:00
FILE "09 - Királylány (duett Király Lindával).wav" WAVE
TRACK 09 AUDIO
TITLE "Királylány (duett Király Lindával)"
PERFORMER "Hooligans"
INDEX 01 00:00:00
FILE "10 - Hol a nő (közreműködik a 100 Folk Celsius).wav" WAVE
TRACK 10 AUDIO
TITLE "Hol a nő (közreműködik a 100 Folk Celsius)"
PERFORMER "Hooligans"
INDEX 01 00:00:00
FILE "11 - Paradicsom (Lotfi Begi remix).wav" WAVE
TRACK 11 AUDIO
TITLE "Paradicsom (Lotfi Begi remix)"
PERFORMER "Hooligans"
INDEX 01 00:00:00

Лог проверки качества

Скриншот спектра частот

Лог DRM

foobar2000 1.2.2 / Dynamic Range Meter 1.1.1
log date: 2014-11-06 22:44:06
--------------------------------------------------------------------------------
Analyzed: Hooligans / Társasjáték
--------------------------------------------------------------------------------
DR Peak RMS Duration Track
--------------------------------------------------------------------------------
DR6 0.00 dB -6.70 dB 3:28 01-Eljátszott gyémánt (duett Kalapács Józseffel, közreműködik Nagyfi László)
DR6 0.00 dB -7.76 dB 3:19 02-Halálos csók (duett Janicsák Vecával)
DR6 0.00 dB -7.45 dB 3:27 03-Sex & KV (duett Bornai Tiborral)
DR6 0.00 dB -7.12 dB 4:38 04-Legyen valami (duett Ganxsta Zolee-val)
DR6 0.00 dB -6.90 dB 2:59 05-Végső játék (duett Wolf Katival)
DR7 0.00 dB -7.36 dB 3:57 06-Vér nem válik vízzé (közreműködik az Animal Cannibals)
DR6 0.00 dB -6.25 dB 3:49 07-Mindörökké (duett Nagy Feróval)
DR6 0.00 dB -7.08 dB 3:01 08-Szívből kell (duett Kowalsky-val)
DR6 0.00 dB -6.85 dB 4:51 09-Királylány (duett Király Lindával)
DR6 0.00 dB -6.91 dB 3:18 10-Hol a nő (közreműködik a 100 Folk Celsius)
DR5 -0.20 dB -7.76 dB 3:17 11-Paradicsom (Lotfi Begi remix)
--------------------------------------------------------------------------------
Number of tracks: 11
Official DR value: DR6
Samplerate: 44100 Hz
Channels: 2
Bits per sample: 16
Bitrate: 1045 kbps
Codec: FLAC
================================================================================

Об исполнителе (группе)

Ördög Tibor "Csipa" – ének (1996–napjainkig)
Tóth Tibor – gitár (1996–napjainkig)
Kiss Endre "Endi" – dobok (1996–napjainkig)
Késmárki Zsolt – basszusgitár (2007–napjainkig)

Об альбоме (сборнике)

A Hooligans együttes 2014. novemberében megjelent duett lemeze.
[cybertorrent.ru].t57225.torrent 
Торрент: Зарегистрирован [ 2018-10-04 16:10 ] · 6476034706DB55672168820735DD5C1C5F9F48A6

Скачать .torrent

Скачать

15 KB

Статус: проверено
Скачан: 0 раз
Размер: 328 MB
terms.php
[Профиль] [ЛС]
Показать сообщения:    
Ответить на тему

Текущее время: 17-Фев 08:31

Часовой пояс: UTC + 3



Вы не можете начинать темы
Вы не можете отвечать на сообщения
Вы не можете редактировать свои сообщения
Вы не можете удалять свои сообщения
Вы не можете голосовать в опросах
Вы не можете прикреплять файлы к сообщениям
Вы можете скачивать файлы