Статистика раздачи
Размер:  715 MB   |    Зарегистрирован:  3 месяца 11 дней   |    Скачан:  0 раз

Полного источника не было: Никогда

Личеров:  6  [  0 KB/s  ]  
 
   
 
 

Zima ®

Пол:
Не указан
Стаж:
3 месяца 11 дней
Сообщений:
293

Аншлаг и Компания. Старый Новый год (часть 2-я)
Продолжительность: 01:31:51
Год выхода: 2007
Жанр: Юмористическая программа
В Ролях: Самые популярные юмористы страны Владимир Винокур, Клара Новикова, Сергей Дроботенко, Геннадий Ветров, Юрий Гальцев, Елена Воробей, Светлана Рожкова, Николай Лукинский, театр пародии Владимира Винокура, студенты театрального института из Санкт-Петербурга, шоу-театр "То ли люди, то ли куклы", дрессировщики Е. и В.Беляевы и многие другие.
Размер: 715MB
Видео: DivX 5 640x480 25.00fps 951Kbps
Аудио: MPEG Audio Layer 3 44100Hz stereo 128Kbps

Скриншоты

Тех. данные

General
Format : AVI
Format/Info : Audio Video Interleave
File size : 715 MiB
Duration : 1 h 31 min
Overall bit rate : 1 089 kb/s
Writing library : VirtualDub-MPEG2 build 24417/release
Video
ID : 0
Format : MPEG-4 Visual
Format settings, BVOP : 1
Format settings, QPel : No
Format settings, GMC : No warppoints
Format settings, Matrix : Default (H.263)
Muxing mode : Packed bitstream
Codec ID : DX50
Codec ID/Hint : DivX 5
Duration : 1 h 31 min
Bit rate : 951 kb/s
Nominal bit rate : 6 951 kb/s
Width : 640 pixels
Height : 480 pixels
Display aspect ratio : 4:3
Frame rate : 25.000 FPS
Color space : YUV
Chroma subsampling : 4:2:0
Bit depth : 8 bits
Scan type : Progressive
Compression mode : Lossy
Bits/(Pixel*Frame) : 0.124
Stream size : 625 MiB (87%)
Writing library : DivX 5.1.1 (Maupiti) (UTC 2003-11-19)
Audio
ID : 1
Format : MPEG Audio
Format version : Version 1
Format profile : Layer 3
Mode : Joint stereo
Mode extension : MS Stereo
Codec ID : 55
Codec ID/Hint : MP3
Duration : 1 h 31 min
Bit rate mode : Constant
Bit rate : 128 kb/s
Channel(s) : 2 channels
Sampling rate : 44.1 kHz
Compression mode : Lossy
Stream size : 84.1 MiB (12%)
Alignment : Split accross interleaves
Interleave, duration : 40 ms (1.00 video frame)
Interleave, preload duration : 500 ms
[cybertorrent.ru].t579.torrent 
Торрент: Зарегистрирован [ 2018-02-15 20:34 ] · 5D7BF6C788BC6446C90007EAAD8D10C417A933B5

Скачать .torrent

Скачать

14 KB

Статус: проверено
Скачан: 0 раз
Размер: 715 MB
Профиль [ЛС]
Показать сообщения:    

Текущее время: 27-Май 01:38

Часовой пояс: UTC ± 0



Вы не можете начинать темы
Вы не можете отвечать на сообщения
Вы не можете редактировать свои сообщения
Вы не можете удалять свои сообщения
Вы не можете голосовать в опросах
Вы не можете прикреплять файлы к сообщениям
Вы можете скачивать файлы