Статистика раздачи
Размер:  3,51 GB   |    Зарегистрирован:  22 дня   |    Скачан:  0 раз

Полного источника не было: Никогда

 
   
 
 

morzy ®

Пол:
Не указан
Стаж:
6 месяцев 1 день
Сообщений:
33

После дождичка, в четверг...- Страна: СССР
Студия: Киностудия имени М. Горького (Ялтинский филиал), Третье творческое объединение
Жанр: сказка
Год выпуска: 1985
Продолжительность: 01:16:56-Субтитры: нет-Режиссер: Михаил Юзовский
В ролях: Владислав Толдыков, Алексей Войтюк, Геннадий Фролов, Олег Табаков, Валентина Талызина, Марина Зудина, Олег Анофриев, Марина Яковлева, Татьяна Пельтцер, Юрий Медведев, Семён Фарада, Владимир Фёдоров, Василий Кортуков...- | Релиз: -Описание: Однажды, после дождичка в четверг, у царя Авдея родился первенец. В тот же день родился мальчик у ключницы Варвары, а в капусте был обнаружен новорождённый подкидыш. Всех троих нарекли Иванами — и Авдей приказал растить хлопцев вместе. Однако ключница сделала по-своему: положила в царскую люльку своего Ивана, а двух других отдала на каторгу. Прошло двадцать лет, и вот перед Иванами встала задача выйти на свободу, победить Кощея Бессмертного и освободить прекрасную царевну Милолику…-Доп. информация: Данный релиз является оцифровкой оригинальной прокатной кинокопии (35 мм плёнка). В отличие от выпущенного официально DVD имеет полный кадр (см. спойлер "сравнение").
Звук, не смотря на "хруст", имеет более приятный, чем на DVD, частотный окрас, некую кинотеатральную "глубину".-Семпл: http://sendfile.su/1431864-Тип релиза: Telesync
Контейнер: DVD-Video
Видео: 720x576 (4:3) @ 768x576, 25.000 fps, MPEG-2 Video, ~6200 Kbps, 0.598 bits/pixel
Аудио: Русский, 48.0 KHz, AC3, 2 ch, 256 Kbps

DVDInfo

Title: После дождичка, в четверг... 1985 Telesync
Size: 3.51 Gb ( 3 681 256,00 KBytes ) - DVD-5
Enabled regions: 1, 2, 3, 4, 5, 6, 7, 8
VTS_01 :
Play Length: 01:16:56
Video: PAL 4:3 (720x576) VBR
Audio:
Russian, AC3, 2/0 (L,R) ch, 256 kbps, Delay 0 mSec

MediaInfo

General
Complete name : \После дождичка, в четверг... 1985 Telesync\VIDEO_TS\VTS_01_1.VOB
Format : MPEG-PS
File size : 1 024 MiB
Duration : 21 min 44 s
Overall bit rate mode : Variable
Overall bit rate : 6 587 kb/s
Video
ID : 224 (0xE0)
Format : MPEG Video
Format version : Version 2
Format profile : Main@Main
Format settings : BVOP
Format settings, BVOP : Yes
Format settings, Matrix : Default
Format settings, GOP : Variable
Format settings, picture structure : Frame
Duration : 21 min 44 s
Bit rate mode : Variable
Bit rate : 6 200 kb/s
Maximum bit rate : 9 400 kb/s
Width : 720 pixels
Height : 576 pixels
Display aspect ratio : 4:3
Frame rate : 25.000 FPS
Standard : PAL
Color space : YUV
Chroma subsampling : 4:2:0
Bit depth : 8 bits
Scan type : Interlaced
Scan order : Top Field First
Compression mode : Lossy
Bits/(Pixel*Frame) : 0.598
Time code of first frame : 00:00:00:00
Time code source : Group of pictures header
GOP, Open/Closed : Open
GOP, Open/Closed of first frame : Closed
Stream size : 964 MiB (94%)
Color primaries : BT.601 PAL
Transfer characteristics : BT.470 System B/G
Matrix coefficients : BT.470 System B/G
Audio
ID : 189 (0xBD)-128 (0x80)
Format : AC-3
Format/Info : Audio Coding 3
Muxing mode : DVD-Video
Duration : 21 min 43 s
Bit rate mode : Constant
Bit rate : 256 kb/s
Channel(s) : 2 channels
Channel positions : Front: L R
Sampling rate : 48.0 kHz
Frame rate : 31.250 FPS (1536 SPF)
Bit depth : 16 bits
Compression mode : Lossy
Stream size : 39.8 MiB (4%)
Service kind : Complete Main
Menu

Скриншоты

Афиша

-

Сравнение с DVD

-DVD- -Telesync-
[cybertorrent.ru].t58024.torrent 
Торрент: Зарегистрирован [ 2018-07-25 13:52 ] · AB1148D50318E2E5BD9D105FF873CFE17AF00F79

Скачать .torrent

Скачать

18 KB

Статус: проверено
Скачан: 0 раз
Размер: 3,51 GB
Профиль [ЛС]
Показать сообщения:    

Текущее время: 17-Авг 09:19

Часовой пояс: UTC ± 0



Вы не можете начинать темы
Вы не можете отвечать на сообщения
Вы не можете редактировать свои сообщения
Вы не можете удалять свои сообщения
Вы не можете голосовать в опросах
Вы не можете прикреплять файлы к сообщениям
Вы можете скачивать файлы
Torrents24.ru открытый BitTorrent Torrents24.pl открытый BitTorrent CyberTorrent.ru открытый BitTorrent BtList.ru рейтинг BitTorrent трекеров Яндекс.Метрика