Статистика раздачи
Размер:  82 MB   |    Зарегистрирован:  4 месяца 12 дней   |    Скачан:  0 раз

Полного источника не было: Никогда

 
   
 
 

norvil ®

Пол:
Не указан
Стаж:
9 месяцев 25 дней
Сообщений:
196

Воробей, который умел держать слово
Страна: Россия
Жанр: мультфильм
Продолжительность: 00:06:40
Год выпуска: 2010
Режиссёр: Дмитрий Геллер
Музыка: Сергей Прокофьев
Текст читает: Александр Леньков
Описание: История про маленького, но смелого и честного воробья, который умел держать слово.
Качество: WEBRip-AVC
Формат: MP4
Видео: 1583 kbps, 1280х720 (16:9), 25.000 fps, AVC (Main@L3.1)
Аудио: 126 kbps, 44.1 kHz, 2 channels, MPEG Audio (MP3)
Субтитры: отсутствуют

Подробные технические данные

General
Complete name : Воробей, который умел держать слово (2010).mp4
Format : MPEG-4
Format profile : Base Media / Version 2
Codec ID : mp42
File size : 81.6 MiB
Duration : 6mn 40s
Overall bit rate mode : Variable
Overall bit rate : 1 712 Kbps
Encoded date : UTC 2016-08-17 02:53:33
Tagged date : UTC 2016-08-17 02:53:33
gsst : 0
gstd : 400056
Video
ID : 1
Format : AVC
Format/Info : Advanced Video Codec
Format profile : Main@L3.1
Format settings, CABAC : Yes
Format settings, ReFrames : 3 frames
Codec ID : avc1
Codec ID/Info : Advanced Video Coding
Duration : 6mn 40s
Bit rate : 1 583 Kbps
Width : 1 280 pixels
Height : 720 pixels
Display aspect ratio : 16:9
Frame rate mode : Constant
Frame rate : 25.000 fps
Color space : YUV
Chroma subsampling : 4:2:0
Bit depth : 8 bits
Scan type : Progressive
Bits/(Pixel*Frame) : 0.069
Stream size : 75.5 MiB (92%)
Title : ISO Media file produced by Google Inc.
Encoded date : UTC 2016-08-17 02:53:33
Tagged date : UTC 2016-08-17 02:53:33
Audio
ID : 2
Format : AAC
Format/Info : Advanced Audio Codec
Format profile : LC
Codec ID : 40
Duration : 6mn 40s
Bit rate mode : Variable
Bit rate : 126 Kbps
Channel(s) : 2 channels
Channel positions : Front: L R
Sampling rate : 44.1 KHz
Compression mode : Lossy
Stream size : 5.99 MiB (7%)
Title : ISO Media file produced by Google Inc.
Encoded date : UTC 2016-08-17 02:53:33
Tagged date : UTC 2016-08-17 02:53:33

Скриншоты

[cybertorrent.ru].t58054.torrent 
Торрент: Зарегистрирован [ 2018-07-31 15:43 ] · 5C4BD1847D13EF40ACB389A47A8EE30713222806

Скачать .torrent

Скачать

13 KB

Статус: проверено
Скачан: 0 раз
Размер: 82 MB
Профиль [ЛС]
Показать сообщения:    

Текущее время: 13-Дек 01:22

Часовой пояс: UTC ± 0



Вы не можете начинать темы
Вы не можете отвечать на сообщения
Вы не можете редактировать свои сообщения
Вы не можете удалять свои сообщения
Вы не можете голосовать в опросах
Вы не можете прикреплять файлы к сообщениям
Вы можете скачивать файлы
Torrents24.ru открытый BitTorrent Torrents24.pl открытый BitTorrent CyberTorrent.ru открытый BitTorrent BtList.ru рейтинг BitTorrent трекеров Яндекс.Метрика