Статистика раздачи
Размер:  8,03 GB   |    Зарегистрирован:  2 месяца 14 дней   |    Скачан:  0 раз

Полного источника не было: Никогда

 
   
 
 

zaja ®

Пол:
Не указан
Стаж:
8 месяцев 1 день
Сообщений:
58

Земля до начала времен 3: В поисках воды / The Land Before Time III: The Time of the Great Giving
Страна: США
Жанр: приключения, семейный
Продолжительность: 01:10:48
Год выпуска: 1995
Перевод 1: Профессиональный (дублированный) Селена Интернешнл
Перевод 2: Профессиональный (многоголосый закадровый) Премьер Видео Фильм
Перевод 3: Авторский (одноголосый закадровый) Юрий Живов
Перевод 4: Авторский (одноголосый закадровый) Павел Санаев
Перевод 5: Авторский (одноголосый закадровый) Максим Ошурков
Русские субтитры: нет
Режиссёр: Рой Аллен Смит / Roy Allen Smith
Описание: Случилось так, что однажды на Великую Долину упал большой метеорит, который отрезал местных жителей от запасов воды. Среди некогда миролюбивых динозавров начинает расти напряжение.
Крошки-Ножки и его друзья решают помочь родителям и «прорвать блокаду»: динозаврики отправляются на поиски воды. И, о чудо! Нашим маленьким смельчакам посчастливилось найти новый водоем! Но он располагается между Великой Долиной и теми жуткими, таинственным местами, где обитают страшные Острозубы…
Семпл: http://sendfile.su/1433895
Качество: WEB-DL 1080p
Формат: MKV
Видео: 1920x1080 (16:9), 23.976 fps, AVC, ~13.6 Mbps, 0.274 bits/pixel
Аудио 1: Russian, 48.0 KHz, AC3, 2 ch, 192 Kbps - Селена Интернешнл
Аудио 2: Russian, 48.0 KHz, FLAC, 2 ch, 698 Kbps - Премьер Видео Фильм
Аудио 3: Russian, 48.0 KHz, AC3, 2 ch, 192 Kbps - Юрий Живов
Аудио 4: Russian, 48.0 KHz, AC3, 2 ch, 192 Kbps - Павел Санаев
Аудио 5: Russian, 48.0 KHz, FLAC, 2 ch, 820 Kbps - Максим Ошурков
Аудио 6: English, 48.0 KHz, AC3+, 2 ch, 224 Kbps
Субтитры: английские

Дополнительная информация

Предоставление перевода Живова, запись дубляжа с телеканала Disney, оцифровка перевода Ошуркова - xfiles.
Оцифровка перевода Премьер Видео Фильм - серый75.
Перевод Санаева с DVD от 21Sepsis.
Синхронизация звука - Dreven.

Подробные технические данные

General
Unique ID : 231377063966806001824510274530806221847 (0xAE119A020D3FA7EE36C9DBD031224C17)
Complete name : D:\The Land Before Time III - The Time of the Great Giving. WEB-DL 1080p.mkv
Format : Matroska
Format version : Version 4 / Version 2
File size : 8.03 GiB
Duration : 1 h 10 min
Overall bit rate mode : Variable
Overall bit rate : 16.2 Mb/s
Encoded date : UTC 2018-08-01 10:18:06
Writing application : mkvmerge v25.0.0 ('Prog Noir') 64-bit
Writing library : libebml v1.3.6 + libmatroska v1.4.9
Video
ID : 1
Format : AVC
Format/Info : Advanced Video Codec
Format profile : High@L4
Format settings : CABAC / 4 Ref Frames
Format settings, CABAC : Yes
Format settings, ReFrames : 4 frames
Codec ID : V_MPEG4/ISO/AVC
Duration : 1 h 10 min
Bit rate mode : Variable
Bit rate : 13.9 Mb/s
Maximum bit rate : 15.0 Mb/s
Width : 1 920 pixels
Height : 1 080 pixels
Display aspect ratio : 16:9
Frame rate mode : Constant
Frame rate : 23.976 (24000/1001) FPS
Color space : YUV
Chroma subsampling : 4:2:0
Bit depth : 8 bits
Scan type : Progressive
Bits/(Pixel*Frame) : 0.280
Stream size : 6.88 GiB (86%)
Language : English
Default : Yes
Forced : No
Color range : Limited
Color primaries : BT.709
Transfer characteristics : BT.709
Matrix coefficients : BT.709
Audio #1
ID : 2
Format : AC-3
Format/Info : Audio Coding 3
Codec ID : A_AC3
Duration : 1 h 10 min
Bit rate mode : Constant
Bit rate : 192 kb/s
Channel(s) : 2 channels
Channel positions : Front: L R
Sampling rate : 48.0 kHz
Frame rate : 31.250 FPS (1536 SPF)
Bit depth : 16 bits
Compression mode : Lossy
Stream size : 97.2 MiB (1%)
Title : Селена Интернешнл
Language : Russian
Service kind : Complete Main
Default : Yes
Forced : No
Audio #2
ID : 3
Format : FLAC
Format/Info : Free Lossless Audio Codec
Codec ID : A_FLAC
Duration : 1 h 10 min
Bit rate mode : Variable
Bit rate : 698 kb/s
Channel(s) : 2 channels
Channel positions : Front: L R
Sampling rate : 48.0 kHz
Frame rate : 11.719 FPS (4096 SPF)
Bit depth : 16 bits
Stream size : 354 MiB (4%)
Title : Премьер Видео Фильм
Writing library : libFLAC 20080709 (UTC 2008-07-09)
Language : Russian
Default : No
Forced : No
Audio #3
ID : 4
Format : AC-3
Format/Info : Audio Coding 3
Codec ID : A_AC3
Duration : 1 h 10 min
Bit rate mode : Constant
Bit rate : 192 kb/s
Channel(s) : 2 channels
Channel positions : Front: L R
Sampling rate : 48.0 kHz
Frame rate : 31.250 FPS (1536 SPF)
Bit depth : 16 bits
Compression mode : Lossy
Stream size : 97.2 MiB (1%)
Title : Юрий Живов
Language : Russian
Service kind : Complete Main
Default : No
Forced : No
Audio #4
ID : 5
Format : AC-3
Format/Info : Audio Coding 3
Codec ID : A_AC3
Duration : 1 h 10 min
Bit rate mode : Constant
Bit rate : 192 kb/s
Channel(s) : 2 channels
Channel positions : Front: L R
Sampling rate : 48.0 kHz
Frame rate : 31.250 FPS (1536 SPF)
Bit depth : 16 bits
Compression mode : Lossy
Stream size : 97.2 MiB (1%)
Title : Павел Санаев
Language : Russian
Service kind : Complete Main
Default : No
Forced : No
Audio #5
ID : 6
Format : FLAC
Format/Info : Free Lossless Audio Codec
Codec ID : A_FLAC
Duration : 1 h 10 min
Bit rate mode : Variable
Bit rate : 820 kb/s
Channel(s) : 2 channels
Channel positions : Front: L R
Sampling rate : 48.0 kHz
Frame rate : 11.719 FPS (4096 SPF)
Bit depth : 16 bits
Stream size : 415 MiB (5%)
Title : Максим Ошурков
Writing library : libFLAC 20080709 (UTC 2008-07-09)
Language : Russian
Default : No
Forced : No
Audio #6
ID : 7
Format : E-AC-3
Format/Info : Enhanced Audio Coding 3
Codec ID : A_EAC3
Duration : 1 h 10 min
Bit rate mode : Constant
Bit rate : 224 kb/s
Channel(s) : 2 channels
Channel positions : Front: L R
Sampling rate : 48.0 kHz
Frame rate : 187.500 FPS (256 SPF)
Compression mode : Lossy
Stream size : 113 MiB (1%)
Language : English
Service kind : Complete Main
Default : No
Forced : No
Text
ID : 8
Format : UTF-8
Codec ID : S_TEXT/UTF8
Codec ID/Info : UTF-8 Plain Text
Duration : 1 h 4 min
Bit rate : 59 b/s
Count of elements : 1027
Stream size : 28.2 KiB (0%)
Language : English
Default : No
Forced : No

Скриншоты

[cybertorrent.ru].t58075.torrent 
Торрент: Зарегистрирован [ 2018-08-02 13:56 ] · 8BA6428424B39D21281450BBE4EFA33323580A8B

Скачать .torrent

Скачать

21 KB

Статус: проверено
Скачан: 0 раз
Размер: 8,03 GB
Профиль [ЛС]
Показать сообщения:    

Текущее время: 16-Окт 19:22

Часовой пояс: UTC ± 0



Вы не можете начинать темы
Вы не можете отвечать на сообщения
Вы не можете редактировать свои сообщения
Вы не можете удалять свои сообщения
Вы не можете голосовать в опросах
Вы не можете прикреплять файлы к сообщениям
Вы можете скачивать файлы
Torrents24.ru открытый BitTorrent Torrents24.pl открытый BitTorrent CyberTorrent.ru открытый BitTorrent BtList.ru рейтинг BitTorrent трекеров Яндекс.Метрика