Статистика раздачи
Размер:  1,36 GB   |    Зарегистрирован:  9 дней   |    Скачан:  0 раз

Полного источника не было: Никогда

 
   
 
 

genjabtr ®

Пол:
Не указан
Стаж:
6 месяцев 1 день
Сообщений:
202

- Сириус-егерь/ Tenrou: Sirius the Jaeger-Страна: Япония
Год выпуска: 2018
Жанр: приключения, ужасы, сверхъестественное, вампиры, оборотни
Тип: TV
Продолжительность: 12 эп., ~25 мин. эпизод
Режиссер: Андо Масахиро
Студия: P.A. Works-Описание:Имперская столица, всеми любимый Токио, 1930 год. Именно там разворачиваются события нового аниме-сериала «Небесные волки: Сириус-егерь». Нас ждёт захватывающая история о мире, который уже давно находится под гнётом вампиров и ввиду этого разрушен. Но раз в мире есть вампиры, должны быть и охотники на подобную нечисть. И вот, сюжет расскажет нам о группе так называемых «Егерей» — людей, вооружённых чехлами, изначально задуманными как хранилище музыкальных инструментов, где находится нечто, явно превосходящее наши ожидания. Итак, эта группа неизвестных прибывает на станцию Токио и собирается разобраться с вампирами раз и навсегда, устроив на них охоту. Есть среди них и юноша, которого зовут Юлий: всем своим видом он выражает невозмутимость и излучает неординарную ауру. Этот парень — оборотень, чью деревню уничтожили вампиры, и в глазах его пылает ненависть к этим существам. Вместе с компанией Егерей он собирается принять участие в битве за загадочную священную арку, так же известную как «Арка Сириуса». От этой битвы зависит как будущая жизнь вампиров, так и судьба самих героев. Вопрос лишь в том, что ждёт их впереди и какие напасти им придётся преодолеть, чтобы разобраться с ныне главным врагом человечества, яростными кровопийцами-вампирами.© Risens Team-World-Art | AniDB-Качество: HDTVRip
Тип релиза: Без хардсаба
Формат видео: MP4
Наличие линковки: Нет
Релиз: [Ohys-Raws]
Видео: 1280x720, x264, 1 839 kb/s VRB, 23.976 fps, 8 бит
Аудио: AAC, 192 kb/s VRB, 2 ch, 48.0 kHz; язык японский
Субтитры 1 (серии 1-4): внешние, язык субтитров русский; Перевод: aiso & Scarlett [AniLibria]
Субтитры 2 (серии 1-3): внешние, язык субтитров русский; Перевод: Shy [Risens Team]
Субтитры 3 (серии 1-3): внешние, язык субтитров русский; Перевод: Nika_Elrik [YakuSub Studio]
Субтитры 4 (серии 1-3): внешние, язык субтитров русский; Перевод: Zero [Уголок Анжи]
Субтитры 5 (серии 1-4): внешние, язык субтитров русский; Перевод: AtrosVonEmreis & Tapok [Sovetromantica]

Подробные тех. данные

Format : MPEG-4
Format profile : Base Media
Codec ID : isom (isom/avc1)
File size : 350 MiB
Duration : 24 min 0 s
Overall bit rate mode : Variable
Overall bit rate : 2 038 kb/s
Encoded date : UTC 2018-07-12 14:33:00
Tagged date : UTC 2018-07-12 14:33:00
Video
ID : 1
Format : AVC
Format/Info : Advanced Video Codec
Format profile : Main@L4.1
Format settings : CABAC / 4 Ref Frames
Format settings, CABAC : Yes
Format settings, ReFrames : 4 frames
Codec ID : avc1
Codec ID/Info : Advanced Video Coding
Duration : 24 min 0 s
Bit rate : 1 839 kb/s
Maximum bit rate : 12.5 Mb/s
Width : 1 280 pixels
Height : 720 pixels
Display aspect ratio : 16:9
Frame rate mode : Constant
Frame rate : 23.976 (24000/1001) FPS
Color space : YUV
Chroma subsampling : 4:2:0
Bit depth : 8 bits
Scan type : Progressive
Bits/(Pixel*Frame) : 0.083
Stream size : 316 MiB (90%)
Writing library : x264 core 155 r2901 7d0ff22
Encoding settings : cabac=1 / ref=3 / deblock=1:0:0 / analyse=0x1:0x111 / me=hex / subme=7 / psy=1 / psy_rd=1.00:0.00 / mixed_ref=1 / me_range=16 / chroma_me=1 / trellis=1 / 8x8dct=0 / cqm=0 / deadzone=21,11 / fast_pskip=1 / chroma_qp_offset=-2 / threads=18 / lookahead_threads=3 / sliced_threads=0 / nr=0 / decimate=1 / interlaced=0 / bluray_compat=0 / constrained_intra=0 / bframes=3 / b_pyramid=2 / b_adapt=1 / b_bias=0 / direct=1 / weightb=1 / open_gop=0 / weightp=2 / keyint=240 / keyint_min=1 / scenecut=40 / intra_refresh=0 / rc_lookahead=40 / rc=crf / mbtree=1 / crf=20.0 / qcomp=0.60 / qpmin=0 / qpmax=69 / qpstep=4 / ip_ratio=1.40 / aq=1:1.50
Encoded date : UTC 2018-07-12 14:33:00
Tagged date : UTC 2018-07-12 14:33:03
Color range : Limited
Color primaries : BT.709
Transfer characteristics : BT.709
Matrix coefficients : BT.709
Audio
ID : 2
Format : AAC
Format/Info : Advanced Audio Codec
Format profile : LC
Codec ID : mp4a-40-2
Duration : 24 min 0 s
Bit rate mode : Variable
Bit rate : 192 kb/s
Maximum bit rate : 254 kb/s
Channel(s) : 2 channels
Channel positions : Front: L R
Sampling rate : 48.0 kHz
Frame rate : 46.875 FPS (1024 SPF)
Compression mode : Lossy
Stream size : 33.6 MiB (10%)
Language : Japanese
Encoded date : UTC 2018-07-12 14:25:29
Tagged date : UTC 2018-07-12 14:33:03

Скриншоты

Список эпизодов

1. Призрак, Вопящий Во Тьме
2. Лишенный Талант
3. Несмываемые Воспоминания
4. Начало Обмана
5. Франкештейн
Эфир 5-го эпизода намечен на 09.08.2018
Внимание! Релиз заменен на [Ohys-Raws]
[cybertorrent.ru].t58091.torrent 
Торрент: Зарегистрирован [ 2018-08-07 15:13 ] · A065C17A87C321C15FF3557DCE8050054E7BAEE4

Скачать .torrent

Скачать

17 KB

Статус: проверено
Скачан: 0 раз
Размер: 1,36 GB
Профиль [ЛС]
Показать сообщения:    

Текущее время: 17-Авг 09:19

Часовой пояс: UTC ± 0



Вы не можете начинать темы
Вы не можете отвечать на сообщения
Вы не можете редактировать свои сообщения
Вы не можете удалять свои сообщения
Вы не можете голосовать в опросах
Вы не можете прикреплять файлы к сообщениям
Вы можете скачивать файлы
Torrents24.ru открытый BitTorrent Torrents24.pl открытый BitTorrent CyberTorrent.ru открытый BitTorrent BtList.ru рейтинг BitTorrent трекеров Яндекс.Метрика