Статистика раздачи
Размер:  393 MB   |    Зарегистрирован:  9 дней   |    Скачан:  0 раз

Полного источника не было: Никогда

 
   
 
 

xfactor ®

Пол:
Не указан
Стаж:
6 месяцев 1 день
Сообщений:
64

Космическая фантазия: Ловушка звёздной пантеры / Cosmic Fantasy: Ginga Mehyou no Wana / コズミック・ファンタジー -銀河女豹の罠-
Страна: Япония
Год выпуска: 1994
Жанр: приключения, фантастика
Тип: OVA
Продолжительность: 46 мин.
Режиссер: Оти Кадзухиро
Студия: Tokuma Shoten
Описание: Юу и Сайя - самые известные космоохотники в галактике. Юу пожинает лавры своей известности после последнего пережитого им приключения. Но отдых длился недолго - поступил сигнал бедствия от их "союзника" кота Няна. А тут ещё активизировалась космическая пиратка Вельга - нападает на космические корабли с целью выманить Юу. Стремясь завоевать сердце равнодушного к ней парня она поклялась, что если он не будет с ней, то и никому не достанется!
© Ktisa, anidream.net
Качество: LDRip
Тип релиза: Без хардсаба
Формат видео: MKV
Релиз/Автор рипа: Orphan
Видео: AVC, 640x480, 1 000 kb/s, 23.976 fps, 8 bit
Аудио: jpn(int), MP3, 192 kb/s, 48.0 kHz, 2 ch
Субтитры 1: eng(int), ASS
Субтитры 2: rus(ext), ASS, Переводчик: kuchitsu, Редактор: Jarly

Подробные тех. данные

General
Unique ID : 190141195259166824973426871745507929056 (0x8F0BDCB6975A74BC9DE556D4EBBAABE0)
Complete name : F:\1\MR\[Orphan] Cosmic Fantasy (LD)\[Orphan] Cosmic Fantasy (LD) [7CCA293D].mkv
Format : Matroska
Format version : Version 4 / Version 2
File size : 393 MiB
Duration : 45 min 35 s
Overall bit rate : 1 205 kb/s
Movie name : [Orphan] Cosmic Fantasy
Encoded date : UTC 2017-07-07 15:49:27
Writing application : mkvmerge v7.8.0 ('River Man') 32bit built on Mar 27 2015 16:18:02
Writing library : libebml v1.3.1 + libmatroska v1.4.2
Attachments : 123Marker.ttf / candarab.ttf / candaraz.ttf / DK Codswallop.ttf / FOT-TsukuMinPro-H(c).ttf / Kozuka Mincho Pro H.ttf / SoulEaterBold.ttf / FOT-RodinPro-DB.otf
Video
ID : 1
Format : AVC
Format/Info : Advanced Video Codec
Format profile : High@L3.2
Format settings : CABAC / 16 Ref Frames
Format settings, CABAC : Yes
Format settings, RefFrames : 16 frames
Codec ID : V_MPEG4/ISO/AVC
Duration : 45 min 35 s
Bit rate : 1 000 kb/s
Width : 640 pixels
Height : 480 pixels
Display aspect ratio : 4:3
Frame rate mode : Constant
Frame rate : 23.976 (24000/1001) FPS
Color space : YUV
Chroma subsampling : 4:2:0
Bit depth : 8 bits
Scan type : Progressive
Bits/(Pixel*Frame) : 0.136
Stream size : 323 MiB (82%)
Title : Video
Writing library : x264 core 146 r2538bm 121396c
Encoding settings : cabac=1 / ref=16 / deblock=1:1:1 / analyse=0x3:0x133 / me=tesa / subme=11 / psy=1 / psy_rd=0.40:0.00 / mixed_ref=1 / me_range=24 / chroma_me=1 / trellis=2 / 8x8dct=1 / cqm=0 / deadzone=21,11 / fast_pskip=0 / chroma_qp_offset=-2 / threads=18 / lookahead_threads=3 / sliced_threads=0 / nr=0 / decimate=1 / interlaced=0 / bluray_compat=0 / constrained_intra=0 / bframes=16 / b_pyramid=2 / b_adapt=2 / b_bias=0 / direct=3 / weightb=1 / open_gop=0 / weightp=2 / keyint=250 / keyint_min=23 / scenecut=40 / intra_refresh=0 / rc_lookahead=60 / rc=2pass / mbtree=1 / bitrate=1000 / ratetol=1.0 / qcomp=0.60 / qpmin=0 / qpmax=69 / qpstep=4 / cplxblur=20.0 / qblur=0.5 / ip_ratio=1.40 / aq=1:0.60
Default : Yes
Forced : No
Audio
ID : 2
Format : MPEG Audio
Format version : Version 1
Format profile : Layer 3
Format settings : Joint stereo
Codec ID : A_MPEG/L3
Codec ID/Hint : MP3
Duration : 45 min 35 s
Bit rate mode : Constant
Bit rate : 192 kb/s
Channel(s) : 2 channels
Sampling rate : 48.0 kHz
Compression mode : Lossy
Stream size : 62.6 MiB (16%)
Title : Japanese audio
Language : Japanese
Default : Yes
Forced : No
Text
ID : 3
Format : ASS
Codec ID : S_TEXT/ASS
Codec ID/Info : Advanced Sub Station Alpha
Compression mode : Lossless
Title : English subtitles
Language : English
Default : Yes
Forced : No
Menu
00:00:00.000 : Prologue
00:02:05.430 : Day Off
00:10:28.850 : Emergency
00:19:07.290 : Belga
00:27:53.270 : Confrontation
00:36:47.830 : Aftermath
00:39:52.280 : Ending
00:43:29.210 : Game Promo

Скриншоты

[cybertorrent.ru].t58095.torrent 
Торрент: Зарегистрирован [ 2018-08-07 15:13 ] · 5E013B0FDAEDADF94374A7C9237B7F3B4031BC15

Скачать .torrent

Скачать

16 KB

Статус: проверено
Скачан: 0 раз
Размер: 393 MB
Профиль [ЛС]
Показать сообщения:    

Текущее время: 17-Авг 09:19

Часовой пояс: UTC ± 0



Вы не можете начинать темы
Вы не можете отвечать на сообщения
Вы не можете редактировать свои сообщения
Вы не можете удалять свои сообщения
Вы не можете голосовать в опросах
Вы не можете прикреплять файлы к сообщениям
Вы можете скачивать файлы
Torrents24.ru открытый BitTorrent Torrents24.pl открытый BitTorrent CyberTorrent.ru открытый BitTorrent BtList.ru рейтинг BitTorrent трекеров Яндекс.Метрика