Статистика раздачи
Размер:  700 MB   |    Зарегистрирован:  10 дней   |    Скачан:  0 раз

Полного источника не было: Никогда

 
   
 
 

kex ®

Пол:
Не указан
Стаж:
7 месяцев 4 дня
Сообщений:
678

Покахонтас 2: возвращение Джона Смита / Pocahontas 2: The Return Of John Smith
Страна: США
Жанр: анимация
Продолжительность: 00:40:21
Год выпуска: 1996
Перевод: Одноголосый закадровый [женский]
Русские субтитры: нет
Режиссёр: Иниго Берасатеги / Inigo Berasatege, Даниэль Бендито / Daniel Bendito
Роли озвучивали: неизвестно
Описание: Продолжение полнометражного мультфильма о приключениях Покахонтас, дочери индейского вождя. В 1614 году Джон Смит возвращается в Джеймстаун, где вновь встречается с Покахонтас. В городе все изменилось в худшую сторону. Джону это очень не понравилось. Зная героя по первому фильму, мы уверены, что просто так он этого не оставит. Романтические приключения героев продолжаются. К сожалению, по качеству эта лента уступает оригиналу. (М. Иванов)
Доп. информация: Релиз раритетного мульта предоставил ilgiz01
Релиз
Семпл: https://yadi.sk/i/yquss_nrfN4o_A
Качество: VHSRip
Формат: AVI
Видео: 704x528 (1.33:1), 25 fps, XviD build 73 ~2222 kbps avg, 0.24 bit/pixel
Аудио: 48 kHz, AC3 Dolby Digital, 2/0 (L,R) ch, ~192 kbps
Субтитры: отсутствуют

Подробные технические данные

Покахтонтас 2 возвращение Джона Смита - Pocahontas 2 The Return Of John Smith [by ilgiz01].avi
Format : AVI
Format/Info : Audio Video Interleave
File size : 700 MiB
Duration : 40 min 21 s
Overall bit rate : 2 424 kb/s
Movie name : Покахтонтас 2 возвращение Джона Смита - Pocahontas 2 The Return Of John Smith [by ilgiz01]
Director : ilgiz01
Writing application : VirtualDubMod 1.5.10.3 | www.virtualdub-fr.org || (build 2550/release)
Copyright : Edich2
Comment : Rutracker.org
Video
ID : 0
Format : MPEG-4 Visual
Format profile : Advanced Simple@L5
Format settings : BVOP2 / Custom Matrix
Format settings, BVOP : 2
Format settings, QPel : No
Format settings, GMC : No warppoints
Format settings, Matrix : Custom
Codec ID : XVID
Codec ID/Hint : XviD
Duration : 40 min 21 s
Bit rate : 2 222 kb/s
Width : 704 pixels
Height : 528 pixels
Display aspect ratio : 4:3
Frame rate : 25.000 FPS
Color space : YUV
Chroma subsampling : 4:2:0
Bit depth : 8 bits
Scan type : Progressive
Compression mode : Lossy
Bits/(Pixel*Frame) : 0.239
Stream size : 641 MiB (92%)
Writing library : XviD 73
Audio
ID : 1
Format : AC-3
Format/Info : Audio Coding 3
Codec ID : 2000
Duration : 40 min 21 s
Bit rate mode : Constant
Bit rate : 192 kb/s
Channel(s) : 2 channels
Channel positions : Front: L R
Sampling rate : 48.0 kHz
Frame rate : 31.250 FPS (1536 SPF)
Bit depth : 16 bits
Compression mode : Lossy
Stream size : 55.4 MiB (8%)
Alignment : Split accross interleaves
Interleave, duration : 40 ms (1.00 video frame)
Interleave, preload duratio : 500 ms
Service kind : Complete Main

Скриншоты


[cybertorrent.ru].t58476.torrent 
Торрент: Зарегистрирован [ 2018-09-09 14:46 ] · D1567EB6B4581F22F74B9DF799F132F02070A9C3

Скачать .torrent

Скачать

14 KB

Статус: проверено
Скачан: 0 раз
Размер: 700 MB
Профиль [ЛС]
Показать сообщения:    

Текущее время: 20-Сен 03:11

Часовой пояс: UTC ± 0



Вы не можете начинать темы
Вы не можете отвечать на сообщения
Вы не можете редактировать свои сообщения
Вы не можете удалять свои сообщения
Вы не можете голосовать в опросах
Вы не можете прикреплять файлы к сообщениям
Вы можете скачивать файлы
Torrents24.ru открытый BitTorrent Torrents24.pl открытый BitTorrent CyberTorrent.ru открытый BitTorrent BtList.ru рейтинг BitTorrent трекеров Яндекс.Метрика