Статистика раздачи
Размер:  8,63 GB   |    Зарегистрирован:  5 дней   |    Скачан:  0 раз

Полного источника не было: Никогда

 
   
 
 

genjabtr ®

Пол:
Не указан
Стаж:
7 месяцев 4 дня
Сообщений:
302

- Страна: Китай
Год выпуска: 2016
Жанр: приключение, драма
Тип: Movie
Продолжительность: 106 мин.
Режиссеры: Чжан Чунь, Лян Сюань
Студия: B&T, Huoerguosi ENLIGHT MEDIA, Studio Mir
Описание:В сердце океана сокрыт волшебный мир. Это обитель духов, управляющих течениями и сменой времён года. Согласно обычаю, те, кому исполнилось 16 лет, должны пройти ритуал посвящения: на семь дней отправиться на Землю в облике красного дельфина. Они могут наблюдать за людьми, но не должны вмешиваться в их жизнь.
Юна во время своего путешествия встречает молодого рыбака, к которому её тянет как магнитом. Но по трагической случайности девушка становится причиной его смерти. Теперь ей нужно спасти душу любимого и вернуть его в мир живых.
- -Качество: BDRip (Blu-ray Disc UK)
Тип релиза: Без хардсаба
Формат видео: MKV
Наличие линковки: Нет
Автор рипа: WiKi
Видео: x264 (8 бит), 1920x800, ~10000 kbps, 24 fps
Аудио 1: AAC, 192 kbps, 48 kHz, 2 ch, русский (в составе контейнера) [лицензия]
Аудио 2: DTS, 768 kbps, 48 kHz, 6 ch, китайский (в составе контейнера)
Аудио 3: DTS, 768 kbps, 48 kHz, 6 ch, английский (в составе контейнера) [лицензия]

Озвучка

дубляж (многоголосый): Алёна Созинова, Прохор Чеховской, Людмила Ильина, Ольга Кузнецова, Ольга Голованова, Мария Новикова, Авдотья Шамшина, Иван Породнов, Глеб Глушенков, Екатерина Мирошникова, Владимир Рыбальченко - sample

Подробные тех. данные

Код:Общее
Уникальный идентификатор : 212104020480921607927890377969570443380 (0x9F91BF998FC0A9CA9282DF79F9907074)
Полное имя : Big.Fish.and.Begonia.2016.BDRip.1080p.x264.DubbedRUS.mkv
Формат : Matroska
Версия формата : Version 4
Размер файла : 8,63 Гбайт
Продолжительность : 1 ч. 45 м.
Общий поток : 11,7 Мбит/сек
Дата кодирования : UTC 2018-09-11 11:17:07
Программа кодирования : mkvmerge v26.0.0 ('In The Game') 64-bit
Библиотека кодирования : libebml v1.3.6 + libmatroska v1.4.9
Видео
Идентификатор : 1
Формат : AVC
Формат/Информация : Advanced Video Codec
Профиль формата : High@L4.1
Настройки формата : CABAC / 5 Ref Frames
Параметр CABAC формата : Да
Параметр RefFrames формата : 5 кадров
Идентификатор кодека : V_MPEG4/ISO/AVC
Продолжительность : 1 ч. 45 м.
Битрейт : 10000 Кбит/сек
Ширина : 1920 пикселей
Высота : 800 пикселей
Соотношение сторон : 2,40:1
Режим частоты кадров : Постоянный
Частота кадров : 24,000 кадра/сек
Цветовое пространство : YUV
Субдискретизация насыщенности : 4:2:0
Битовая глубина : 8 бит
Тип развёртки : Прогрессивная
Бит/(Пиксели*Кадры) : 0.271
Размер потока : 7,36 Гбайт (85%)
Библиотека кодирования : x264 core 130 r2273 b3065e6
Настройки программы : cabac=1 / ref=5 / deblock=1:-1:-1 / analyse=0x3:0x113 / me=umh / subme=11 / psy=1 / psy_rd=1.00:0.00 / mixed_ref=1 / me_range=32 / chroma_me=1 / trellis=2 / 8x8dct=1 / cqm=0 / deadzone=21,11 / fast_pskip=0 / chroma_qp_offset=-4 / threads=12 / lookahead_threads=2 / sliced_threads=0 / nr=0 / decimate=0 / interlaced=0 / bluray_compat=0 / constrained_intra=0 / bframes=8 / b_pyramid=2 / b_adapt=2 / b_bias=0 / direct=3 / weightb=1 / open_gop=0 / weightp=2 / keyint=250 / keyint_min=24 / scenecut=40 / intra_refresh=0 / rc_lookahead=85 / rc=2pass / mbtree=1 / bitrate=10000 / ratetol=1.0 / qcomp=0.60 / qpmin=0 / qpmax=69 / qpstep=4 / cplxblur=20.0 / qblur=0.5 / ip_ratio=1.40 / aq=1:0.85
Язык : Chinese
Default : Да
Forced : Нет
Аудио #1
Идентификатор : 2
Формат : AAC LC
Формат/Информация : Advanced Audio Codec Low Complexity
Идентификатор кодека : A_AAC-2
Продолжительность : 1 ч. 45 м.
Битрейт : 192 Кбит/сек
Каналы : 2 канала
Channel layout : L R
Частота : 48,0 КГц
Частота кадров : 46,875 кадров/сек (1024 SPF)
Метод сжатия : С потерями
Размер потока : 143 Мбайт (2%)
Заголовок : Дубляж
Язык : Russian
Default : Да
Forced : Нет
Аудио #2
Идентификатор : 3
Формат : DTS
Формат/Информация : Digital Theater Systems
Идентификатор кодека : A_DTS
Продолжительность : 1 ч. 45 м.
Вид битрейта : Постоянный
Битрейт : 768 Кбит/сек
Каналы : 6 каналов
Channel layout : C L R Ls Rs LFE
Частота : 48,0 КГц
Частота кадров : 93,750 кадра/сек (512 SPF)
Битовая глубина : 24 бит
Метод сжатия : С потерями
Размер потока : 579 Мбайт (7%)
Язык : Chinese
Default : Нет
Forced : Нет
Аудио #3
Идентификатор : 4
Формат : DTS
Формат/Информация : Digital Theater Systems
Идентификатор кодека : A_DTS
Продолжительность : 1 ч. 45 м.
Вид битрейта : Постоянный
Битрейт : 768 Кбит/сек
Каналы : 6 каналов
Channel layout : C L R Ls Rs LFE
Частота : 48,0 КГц
Частота кадров : 93,750 кадра/сек (512 SPF)
Битовая глубина : 24 бит
Метод сжатия : С потерями
Размер потока : 579 Мбайт (7%)
Язык : English
Default : Нет
Forced : Нет

Отличия

http://cybertorrent.ru/viewtopic.php?t=5371030 (BDRip 1080p, наличие альтернативной русскоязычной дорожки, отсутствие хардсаба);
http://cybertorrent.ru/viewtopic.php?t=5369964 (BDRip 1080p, наличие альтернативной русскоязычной дорожки, отсутствие хардсаба);
http://cybertorrent.ru/viewtopic.php?t=5325181 (BDRip, наличие альтернативной русскоязычной и оригинальной (китайской) звуковых дорожек, отсутствие хардсаба);
http://cybertorrent.ru/viewtopic.php?t=5600326 (BDRip, наличие альтернативной русскоязычной дорожки);
http://cybertorrent.ru/viewtopic.php?t=5600994 (1080p, наличие альтернативной русскоязычной дорожки).

Скриншоты

[cybertorrent.ru].t58533.torrent 
Торрент: Зарегистрирован [ 2018-09-14 13:38 ] · 54D97B4E0277F708AE5BB60F3DEB29FFDC54B62F

Скачать .torrent

Скачать

44 KB

Статус: проверено
Скачан: 0 раз
Размер: 8,63 GB
Профиль [ЛС]
Показать сообщения:    

Текущее время: 20-Сен 03:32

Часовой пояс: UTC ± 0



Вы не можете начинать темы
Вы не можете отвечать на сообщения
Вы не можете редактировать свои сообщения
Вы не можете удалять свои сообщения
Вы не можете голосовать в опросах
Вы не можете прикреплять файлы к сообщениям
Вы можете скачивать файлы
Torrents24.ru открытый BitTorrent Torrents24.pl открытый BitTorrent CyberTorrent.ru открытый BitTorrent BtList.ru рейтинг BitTorrent трекеров Яндекс.Метрика