Статистика раздачи
Размер:  4,69 GB   |    Зарегистрирован:  23 дня   |    Скачан:  0 раз

Полного источника не было: Никогда

 
   
 
 

xfactor ®

Пол:
Не указан
Стаж:
8 месяцев 5 дней
Сообщений:
82

Королева тысячелетия / Shin Taketori Monogatari: 1000-nen Joou / Queen Millennia
Страна: Япония
Год выпуска: 1981
Жанр: приключения, фантастика
Тип: TV
Продолжительность: 26 эп. по 25 мин.
Режиссер: Нисидзава Нобутака
Студия: Toei Animation
Описание: В основу Королевы Тысячелетия положена древняя японская легенда о лунной принцессе, известная как "Легенда о рубщике бамбука". (С) hellbash
Это вполне себе добротная фантастика, одно из самых интересных экранизаций по Мацумото Лейдзи. Сериал, где при количестве серий почти в полусотню, серии объединены в единый сюжет без отдельных историй (что бывает не часто у Мацумото). И даже когда уже прошло три десятка лет, он смотрится всё так же интересно, и не кажется наивным или глупым, как это бывает с некоторыми сериалами, которые не выдерживают проверку временем.
Существует планета, летящая сквозь космос, родина высокоразвитой цивилизации, раз в тысячу лет проходящая рядом с Землей, принося хаос и бедствия. В это время одна из обитательниц этой планеты находится на Земле, чтобы проследить за прохождением своего родного мира и дождаться следующего его появления. Она становится Королевой Тысячелетия.
Время следующего прохождения планеты приближается не предвещая ничего хорошего. Ближе всего он будет к Земле 9 сентября в 9 часов 9 минут 9 секунд и принесет с собой катастрофу, близкую к Апокалипсису. Времени остается все меньше... (с) zlovenko
В отличии от других произведений Вселенной мангаки, это происходит исключительно на Земле, а герои не путешествуют по космосу, и не движутся куда-то в какой-то цели, а действие сюжета происходит в конкретной области их проживания
Качество: DVDRip
Тип релиза: Полухардсаб (караоке опенинга и эндинга)
Формат видео: MKV
Релиз/Автор рипа: Live-eviL
Совместимость с бытовыми плеерами: Нет
Видео: 1-10 XviD 640x480 780 kbps 23.976 fps 8bit 11-26 H264/AVC 640x480 996 kbps 23.976 fps 8bit
Аудио: 1-10 MP3 160 Kbps 2 channels 44.1 KHz 11-26 AAC 160 kbps 2 channels 48.0 KHz Язык Японский
Субтитры: ass, встроенные Язык субтитров английский ; Перевод: Live-Evil
Субтитры 2: 1-21 ass, 22-26 srt, внешние Язык субтитров русский ; Перевод 2: Jiyuu Sub team

Подробные тех. данные

General
Unique ID : 193280039061111489991837489052898920406 (0x916861A932CB517BA167B282500D87D6)
Complete name : H:\archives\Download\Кино\Queen Millennia\[Live-eviL]_Queen_Millennia_(TV)_-_01_[1CE2479A].mkv
Format : Matroska
Format version : Version 4 / Version 2
File size : 170 MiB
Duration : 24mn 43s
Overall bit rate : 959 Kbps
Encoded date : UTC 2018-09-25 06:09:20
Writing application : mkvmerge v6.0.0 ('Coming Up For Air') built on Jan 20 2013 09:52:00
Writing library : libebml v1.3.0 + libmatroska v1.4.0
Attachements : dreamorp.ttf / Klill-Light.ttf / persans.ttf / carolingia.ttf
Video
ID : 1
Format : MPEG-4 Visual
Format profile : Advanced Simple@L5
Format settings, BVOP : 1
Format settings, QPel : Yes
Format settings, GMC : 3 warppoints
Format settings, Matrix : Default (H.263)
Muxing mode : Packed bitstream
Codec ID : V_MS/VFW/FOURCC / XVID
Codec ID/Hint : XviD
Duration : 24mn 43s
Bit rate : 780 Kbps
Width : 640 pixels
Height : 480 pixels
Display aspect ratio : 4:3
Frame rate mode : Constant
Frame rate : 23.976 fps
Color space : YUV
Chroma subsampling : 4:2:0
Bit depth : 8 bits
Scan type : Progressive
Compression mode : Lossy
Bits/(Pixel*Frame) : 0.106
Stream size : 138 MiB (81%)
Writing library : XviD 1.1.0 RC (UTC 2005-11-22)
Default : Yes
Forced : No
Audio
ID : 2
Format : MPEG Audio
Format version : Version 1
Format profile : Layer 3
Mode : Joint stereo
Codec ID : A_MPEG/L3
Codec ID/Hint : MP3
Duration : 24mn 43s
Bit rate mode : Constant
Bit rate : 160 Kbps
Channel(s) : 2 channels
Sampling rate : 44.1 KHz
Compression mode : Lossy
Stream size : 28.3 MiB (17%)
Title : Stereo / Mono
Language : Japanese
Default : Yes
Forced : No
Text
ID : 3
Format : ASS
Codec ID : S_TEXT/ASS
Codec ID/Info : Advanced Sub Station Alpha
Compression mode : Lossless
Title : Formatted
Language : English
Default : Yes
Forced : No
Menu
00:00:07.000 : en:Opening
00:01:27.462 : en:Paranoia And The Universe
00:07:14.017 : en:The Trouble Ahead
00:12:58.695 : en:Eyecatch
00:13:06.995 : en:Morning Events
00:18:51.255 : en:A Bomb Of Introduction
00:23:09.013 : en:Ending
00:24:18.500 : en:Next Episode Preview
File: H:\archives\Download\Кино\Queen Millennia\[Live-eviL]_Queen_Millennia_(TV)_-_11_[28E7C533].mkv
Duration: 00:24:44 (1483.86)
Track #1: video (Queen Millennia - Episode 11)
lang: jpn (2)
codc: V_MPEG4/ISO/AVC -> H264/AVC (22)
reso: 640x480 -> 4:3
fram: vfr
rate: 996 kbps (996.321)
dura: 00:24:44 (1483.82)
size: 176.23 MB (184794634)
Track #2: audio (Queen Millennia - Episode 11)
lang: jpn -> Japanese (2)
codc: A_AAC -> AAC (9)
chan: 2 -> Stereo
samp: 48000 Hz
rate: 160 kbps (160.49)
dura: 00:24:44 (1483.80)
size: 28.39 MB (29767869)
Track #3: subtitles (Queen Millennia - Episode 11)
lang: Unknown (1)
type: S_TEXT/ASS -> ASS (5)
size: 21.05 KB (21555)
Sizes: (check sanity)
disk: 205.21 MB (215176665)
atts: 209.48 KB (214504)
trac: 204.64 MB (214584058) [based on track size]
bitr: 204.62 MB (214562751) [based on bitrate]
tdif: 369.24 KB (378103) 0.17%
bdif: 390.05 KB (399409) 0.18%

Список эпизодов

1 September 9th, 1999, 9 o`clock 9 minutes 9 seconds
2 Hajime, Go See the Vast Universe!
3 Conspiracy of Thief Millennia
4 The Vanishing Meteorite
5 The Underground Ship
6 The Underground Apartment Complex
7 Reception in the Underground Base
8 Call of Emergency: The Underground Explosion!
9 The Mystery of the Big Hole
10 Battle in the Mausoleum of the Saints
11 Is Thief Millennia Foe or Friend!?
12 The Secret of the Astronomical Telescope
13 The Dawn of Execution has Come
14 Queen of the Machine Chamber
15 The Truth in Twilight
16 The Evil Star Lar Metal
17 The Day Yayoi Left the Observatory
18 The Earthquake before the Catastrophe
19 Tomorrow`s Decision
20 Earth is in Danger
21 The Grand Suspicion of the God of Death
22 Man of Squirming Shadow
23 A Stormy Night`s Showdown
24 The Two Pendants
25 Tying a Bond between Old Enemies
26 Fateful Reunion

Скриншоты








[cybertorrent.ru].t58649.torrent 
Торрент: Зарегистрирован [ 2018-09-26 23:27 ] · A79C4F6EB439526F178E0D45C41C0D478AA85979

Скачать .torrent

Скачать

16 KB

Статус: проверено
Скачан: 0 раз
Размер: 4,69 GB
Профиль [ЛС]
Показать сообщения:    

Текущее время: 20-Окт 23:21

Часовой пояс: UTC ± 0



Вы не можете начинать темы
Вы не можете отвечать на сообщения
Вы не можете редактировать свои сообщения
Вы не можете удалять свои сообщения
Вы не можете голосовать в опросах
Вы не можете прикреплять файлы к сообщениям
Вы можете скачивать файлы
Torrents24.ru открытый BitTorrent Torrents24.pl открытый BitTorrent CyberTorrent.ru открытый BitTorrent BtList.ru рейтинг BitTorrent трекеров Яндекс.Метрика