Статистика раздачи
Размер:  1,38 GB   |    Зарегистрирован:  3 месяца 6 дней   |    Скачан:  0 раз

Полного источника не было: Никогда

 
   
 
 

lopster ®

Пол:
Не указан
Стаж:
3 месяца 6 дней
Сообщений:
612

Живописная авантюра
Год выпуска: 2007
Жанр: Aвантюрный детектив
Продолжительность: 01:43:54
Режиссер: Валерий Ахадов
В ролях: Александр Домогаров, Мария Голубкина, Лариса Голубкина
Описание: Максим Ильин - эксперт в области живописи, консультант журналов, одиночка и мизантроп, соглашается позировать юной неизвестной художнице, они договариваются о встрече, но в назначенный день девушка не приходит, зато вскоре предстает в совершенно другом образе: Максим встречает ее в казино в обществе своего старого приятеля известного банкира. Теперь бедная художница скорее напоминает светскую львицу. Банкир приходит вместе с ней к Максиму в гости. И вновь его спутница сменила облик - теперь она манерная ценительница искусства. На следующий день оказывается, что дом банкира ограблен. Ильина вызывают в прокуратуру. За столом в форме следователя - все та же таинственная незнакомка. И это далеко не последнее ее превращение...
Доп. информация: Релиз:
Все раздачи фильма: Живописная авантюра
Качество: DVDRip
Формат: AVI
Видео кодек: XviD
Аудио кодек: AC3
Видео: Video: 720x480 (1.50:1), 25 fps, XviD MPEG-4 ~1699 kbps avg, 0.20 bit/pixel
Аудио: Audio: 48 kHz, AC3 Dolby Digital, 2/0 (L,R) ch, ~192.00 kbps avg

MI

Код:Общее
Полное имя : C:\otkat\Видео\Живописная авантюра\Zhivopisnay.avantura.(2ser.iz.2).2007.XviD.DVDRip.avi
Формат : AVI
Формат/Информация : Audio Video Interleave
Профиль формата : OpenDML
Размер файла : 1,38 Гбайт
Продолжительность : 1 ч. 43 м.
Общий поток : 1899 Кбит/сек
Видео
Идентификатор : 0
Формат : MPEG-4 Visual
Профиль формата : Advanced Simple@L5
Параметр BVOP формата : 2
Параметр QPel формата : Нет
Параметр GMC формата : Без точки перехода
Параметр матрицы формата : Default (H.263)
Режим смешивания : Сжатый битовый поток
Идентификатор кодека : XVID
Идентификатор кодека/Подсказка : XviD
Продолжительность : 1 ч. 43 м.
Битрейт : 1701 Кбит/сек
Ширина : 720 пикселей
Высота : 480 пикселей
Соотношение сторон : 3:2
Частота кадров : 25,000 кадров/сек
Цветовое пространство : YUV
Субдискретизация насыщенности : 4:2:0
Битовая глубина : 8 бит
Тип развёртки : Прогрессивная
Метод сжатия : С потерями
Бит/(Пиксели*Кадры) : 0.197
Размер потока : 1,23 Гбайт (90%)
Библиотека кодирования : XviD 1.2.0.dev47 (UTC 2006-11-01)
Аудио
Идентификатор : 1
Формат : AC-3
Формат/Информация : Audio Coding 3
Расширение режима : CM (complete main)
Параметр Endianness формата : Big
Идентификатор кодека : 2000
Продолжительность : 1 ч. 43 м.
Вид битрейта : Постоянный
Битрейт : 192 Кбит/сек
Каналы : 2 канала
Расположение каналов : Front: L R
Частота : 48,0 КГц
Частота кадров : 31,250 кадров/сек (1536 spf)
Метод сжатия : С потерями
Размер потока : 143 Мбайт (10%)
Выравнивание : Соединение по промежуткам
Продолжительность промежутка : 1000 мс. (25,00 видеокадров)

Скриншоты


[cybertorrent.ru].t59.torrent 
Торрент: Зарегистрирован [ 2018-02-15 13:57 ] · 457E4DD840B1C88EDED48AFFD242F4CDA64BCCD6

Скачать .torrent

Скачать

14 KB

Статус: проверено
Скачан: 0 раз
Размер: 1,38 GB
Профиль [ЛС]
Показать сообщения:    

Текущее время: 21-Май 19:00

Часовой пояс: UTC ± 0



Вы не можете начинать темы
Вы не можете отвечать на сообщения
Вы не можете редактировать свои сообщения
Вы не можете удалять свои сообщения
Вы не можете голосовать в опросах
Вы не можете прикреплять файлы к сообщениям
Вы можете скачивать файлы