Статистика раздачи
Размер:  6,82 GB   |    Зарегистрирован:  3 месяца 5 дней   |    Скачан:  0 раз

Полного источника не было: Никогда

 
     
 
 

Гость ®

Пол:
Не указан

Джефф и инопланетяне / Jeff & Some Aliens
Страна: США
Жанр: комедия
Продолжительность серии: 00:22:00
Год выпуска: 2017
Перевод: Профессиональный (многоголосый закадровый) /2x2/
Русские субтитры: нет
Запись: #Antisnl#
Сведение: Beer kolesik Drinkers

Режиссёр: Шон Доннелли / Sean Donnelly
Роли озвучивали: Бретт Гельман, Джош Фэйдем, Алессандро Миноли, Джон Дэйли, Марк Иванир, Карлос Аласраки, Патрик Ст. Эсприт, Ричард Кайнд, Алисия Сильверстоун, Шон Доннелли и тд.
Описание: Джефф — типичный неудачник, который работает в смузи-кафе и большую часть времени проводит в своей холостяцкой квартирке в окружении творческого беспорядка. Однажды тройка инопланетян выбирает его в качестве объекта изучения, чтобы поближе познакомиться с человеческой расой. Пришельцам предстоит тщательно рассмотреть все аспекты земной жизни и решить, уничтожать человечество или нет. Теперь от того, как себя покажет Джефф, зависит судьба планеты.
Качество: WEB-DL 1080p (AMZN)
Формат: MKV
Видео: MPEG-4 AVC, 1920x1080, 23.976 fps, 4445 kbps
Аудио Rus: AC3 Dolby Digital, 2 ch, 192 kbps, 48 kHz
Аудио Eng: E-AC3 Dolby Digital, 2 ch, 224 kbps, 48 kHz
Субтитры: Английские
Сэмпл
Все раздачи сериала

Список серий

01 - Jeff & Some Honor Killings
02 - Jeff & Some Energy Trading
03 - Jeff & Some Preteen Girls
04 - Jeff & Some Laughs
05 - Jeff & Some Colonists
06 - Jeff & Some Confidence
07 - Jeff & Some Jeffs
08 - Jeff & Some Childlike Joy & Whimsy
09 - Jeff & Some Love
10 - Jeff & Some Love Simulations

Скриншоты

Подробные технические данные

General
Unique ID : 224842464790426257165388889648590106347 (0xA9271564E83D5941AC4F675C6D1E2EEB)
Complete name : E:\Раздачи\Jeff.&.Some.Aliens.S01.1080p.AMZN.WEB-DL.H.264-BkD\Jeff.&.Some.Aliens.S01E01.Jeff.and.Some.Honor.Killings.1080p.AMZN.WEB-DL.H.264-BkD.mkv
Format : Matroska
Format version : Version 4 / Version 2
File size : 748 MiB
Duration : 21 min 29 s
Overall bit rate mode : Variable
Overall bit rate : 4 863 kb/s
Encoded date : UTC 2019-07-08 00:20:34
Writing application : mkvmerge v8.2.0 ('World of Adventure') 64bit
Writing library : libebml v1.3.1 + libmatroska v1.4.2
Video
ID : 1
Format : AVC
Format/Info : Advanced Video Codec
Format profile : High@L4
Format settings, CABAC : Yes
Format settings, ReFrames : 4 frames
Codec ID : V_MPEG4/ISO/AVC
Duration : 21 min 29 s
Bit rate mode : Variable
Bit rate : 4 445 kb/s
Maximum bit rate : 15.0 Mb/s
Width : 1 920 pixels
Height : 1 080 pixels
Display aspect ratio : 16:9
Frame rate mode : Constant
Frame rate : 23.976 (24000/1001) FPS
Color space : YUV
Chroma subsampling : 4:2:0
Bit depth : 8 bits
Scan type : Progressive
Bits/(Pixel*Frame) : 0.089
Stream size : 683 MiB (91%)
Default : Yes
Forced : No
Color range : Limited
Color primaries : BT.709
Transfer characteristics : BT.709
Matrix coefficients : BT.709
Audio #1
ID : 2
Format : AC-3
Format/Info : Audio Coding 3
Mode extension : CM (complete main)
Format settings, Endianness : Big
Codec ID : A_AC3
Duration : 21 min 29 s
Bit rate mode : Constant
Bit rate : 192 kb/s
Channel(s) : 2 channels
Channel positions : Front: L R
Sampling rate : 48.0 kHz
Frame rate : 31.250 FPS (1536 spf)
Compression mode : Lossy
Stream size : 29.5 MiB (4%)
Title : 2x2
Language : Russian
Default : Yes
Forced : No
Audio #2
ID : 3
Format : E-AC-3
Format/Info : Audio Coding 3
Format settings, Endianness : Big
Codec ID : A_EAC3
Duration : 21 min 29 s
Bit rate mode : Constant
Bit rate : 224 kb/s
Channel(s) : 2 channels
Channel positions : Front: L R
Sampling rate : 48.0 kHz
Frame rate : 187.500 FPS (256 spf)
Compression mode : Lossy
Stream size : 34.4 MiB (5%)
Language : English
Default : No
Forced : No
Text #1
ID : 4
Format : UTF-8
Codec ID : S_TEXT/UTF8
Codec ID/Info : UTF-8 Plain Text
Duration : 21 min 10 s
Bit rate : 90 b/s
Count of elements : 449
Stream size : 14.0 KiB (0%)
Language : English
Default : No
Forced : No
Text #2
ID : 5
Format : UTF-8
Codec ID : S_TEXT/UTF8
Codec ID/Info : UTF-8 Plain Text
Duration : 21 min 16 s
Bit rate : 102 b/s
Count of elements : 513
Stream size : 16.0 KiB (0%)
Title : SDH
Language : English
Default : No
Forced : No
[cybertorrent.ru].t5990.torrent 
Торрент: Зарегистрирован [ 2019-09-04 16:06 ] · A6CF980DDC48836EC823DB4F7C3AD4EC53A292C1

Скачать .torrent

Скачать

138 KB

Статус: проверено
Скачан: 0 раз
Размер: 6,82 GB
terms.php
Показать сообщения:    

Текущее время: 09-Дек 23:08

Часовой пояс: UTC ± 0



Вы не можете начинать темы
Вы не можете отвечать на сообщения
Вы не можете редактировать свои сообщения
Вы не можете удалять свои сообщения
Вы не можете голосовать в опросах
Вы не можете прикреплять файлы к сообщениям
Вы можете скачивать файлы