Статистика раздачи
Размер:  678 MB   |    Зарегистрирован:  3 месяца 9 дней   |    Скачан:  0 раз

Полного источника не было: Никогда

 
   
 
 

lopster ®

Пол:
Не указан
Стаж:
3 месяца 9 дней
Сообщений:
612

Своё Кино
Год выпуска: 2005
Жанр: Боевик, Драма
Продолжительность: 1:31
Режиссер: Сергей Тихомиров
В ролях: Сергей Тихомиров, Андрей Лебедев, Армен Арутюнян, Нурулаев Хабиб, Мархабо Саид-Касымова, Эльёр Хасанов, Рустам Юлдашев, Артур Мусаев и другие...
Описание: "Своё кино" - молодёжный фильм о парнях, с разными характерами и разными взглядами на жизнь. У каждого своя история. У каждого свои проблемы. И в один день проблемы достигают той точки, когда их необходимо решать... И решать быстро... Найти крупную сумму за неделю. И кажется, что выход из ситуации один - пойти на грабёж, но их жизнь пересекается с одним человеком, который предлагает другой вариант решения проблемы. С этого момента, жизнь парней полностью меняется. Они начинают снимать своё кино... Всё налаживается... Дружба крепнет...
Но жизнь, в отличие от кино, не может всегда идти по запланированному сценарию...
И концовка фильма об этом ясно говорит... (Сергей Тихомиров)
Все раздачи фильма: Свое кино
Формат: AVI
Видео: 384x288; 25 fps; ~924 kbps avg; DivX Codec 5.1.1
Аудио: 44.100 kHz; 2 ch; ~96.00 kbps avg; MPEG Layer 3
Доп. информация: Будьте бдительны!!! В фильме присутсвует ненормативная лексика.
Для оценки качества изображения и звука достаточно скачать ТИЗЕР (14 мб)

MI

Код:Общее
Полное имя : C:\otkat\Видео\Свое кино\Svoe.kino.avi
Формат : AVI
Формат/Информация : Audio Video Interleave
Размер файла : 678 Мбайт
Продолжительность : 1 ч. 31 м.
Общий поток : 1031 Кбит/сек
Видео
Идентификатор : 0
Формат : MPEG-4 Visual
Параметр BVOP формата : Нет
Параметр QPel формата : Нет
Параметр GMC формата : Без точки перехода
Параметр матрицы формата : Default (H.263)
Идентификатор кодека : DX50
Идентификатор кодека/Подсказка : DivX 5
Продолжительность : 1 ч. 31 м.
Битрейт : 925 Кбит/сек
Ширина : 384 пикселя
Высота : 288 пикселей
Соотношение сторон : 4:3
Частота кадров : 25,000 кадров/сек
Цветовое пространство : YUV
Субдискретизация насыщенности : 4:2:0
Битовая глубина : 8 бит
Тип развёртки : Прогрессивная
Метод сжатия : С потерями
Бит/(Пиксели*Кадры) : 0.335
Размер потока : 608 Мбайт (90%)
Библиотека кодирования : DivX 5.1.1 (Maupiti) (UTC 2003-11-19)
Аудио
Идентификатор : 1
Формат : MPEG Audio
Версия формата : Version 1
Профиль формата : Layer 3
Идентификатор кодека : 55
Идентификатор кодека/Подсказка : MP3
Продолжительность : 1 ч. 31 м.
Вид битрейта : Постоянный
Битрейт : 96,0 Кбит/сек
Каналы : 2 канала
Частота : 44,1 КГц
Метод сжатия : С потерями
Размер потока : 63,1 Мбайт (9%)
Выравнивание : Разделение по промежуткам
Продолжительность промежутка : 40 мс. (1,00 видеокадр)
Время предзагрузки промежутка : 500 мс.
Библиотека кодирования : LAME3.92

Скриншоты


[cybertorrent.ru].t6.torrent 
Торрент: Зарегистрирован [ 2018-02-15 13:57 ] · CB2D2958857EFEEF51830B1C816785F55D9703C5

Скачать .torrent

Скачать

14 KB

Статус: проверено
Скачан: 0 раз
Размер: 678 MB
Профиль [ЛС]
Показать сообщения:    

Текущее время: 25-Май 08:40

Часовой пояс: UTC ± 0



Вы не можете начинать темы
Вы не можете отвечать на сообщения
Вы не можете редактировать свои сообщения
Вы не можете удалять свои сообщения
Вы не можете голосовать в опросах
Вы не можете прикреплять файлы к сообщениям
Вы можете скачивать файлы