Статистика раздачи
Размер:  1,36 GB   |    Зарегистрирован:  3 месяца 8 дней   |    Скачан:  0 раз

Полного источника не было: Никогда

Личеров:  1  [  0 KB/s  ]  
 
   
 
 

lopster ®

Пол:
Не указан
Стаж:
3 месяца 8 дней
Сообщений:
612

Посылка с Марса
Год выпуска: 2004
Жанр: мелодрама, комедия
Продолжительность: 02:04:00
Режиссер: Валентин Донсков, Игорь Кожевников
В ролях: Мария Миронова, Александр Самойленко, Александр Балуев, Костя Домнин, Татьяна Лютаева, Федор Добронравов, Геннадий Назаров
Описание: Канун Нового года. Несколько часов до боя Курантов. Огромный мегаполис — Москва в ожидании главного события. Это фон, драматургический, эмоциональный, обостряющий и создающий ситуации, которые в обычные дни сглаживаются, нивелируются. Но с приближением заветного часа, сказочной новогодней ночи все вдруг меняется, на какой-то миг к нам приходит сказка. Как и положено Новогодней ночи, она будет ночью чудес.
В каком-то смысле чудеса происходят и с нашими героями фильма. Сами того, не подозревая, они оказываются в кругу событий, которые за одну ночь изменят их жизнь. Респектабельная, владеющая несколькими ночными клубами, бизнес-леди — Наталья и простой актер Саша, подрабатывающий Дедом Морозом на детских домашних елках, встречаются в ее загородном доме.
В их отношения прочно вплетается сын Натальи — Никита. Именно он, полный от счастья того, что у него, наконец-то, появился папа, будет тем узелком, который свяжет судьбы героев крепко и надолго.
Доп. информация:
Награды: Ежегодный Открытый Российский фестиваль кинокомедии "Улыбнись, Россия!" под руководством Аллы Суриковой (2004г.), Главный Приз фестиваля "За отличную комедию для телеэкрана" (Впервые в истории фестиваля зрителями отдано 94% голосов), Приз "Лучшая Актриса" (Мария Миронова).
Все раздачи фильма: Посылка с Марса
Качество: DVDRip
Формат: AVI
Видео кодек: XviD
Аудио кодек: AC3
Видео: размер кадра 608x320, частота 24 к/с, битрейт 1115 кбит/с
Аудио: кодек AC3 Dolby Digital, 48 kHz, битрейт 448 кбит/с

MI

Код:Общее
Полное имя : C:\otkat\Видео\Посылка с Марса\Posylka_s_Marsa(torrents.ru).avi
Формат : AVI
Формат/Информация : Audio Video Interleave
Размер файла : 1,36 Гбайт
Продолжительность : 2 ч. 4 м.
Общий поток : 1573 Кбит/сек
Программа кодирования : VirtualDubMod 1.5.10.1 (build 2439/release)
Библиотека кодирования : VirtualDubMod build 2439/release
Видео
Идентификатор : 0
Формат : MPEG-4 Visual
Профиль формата : Advanced Simple@L5
Параметр BVOP формата : 1
Параметр QPel формата : Да
Параметр GMC формата : Без точки перехода
Параметр матрицы формата : Default (MPEG)
Идентификатор кодека : XVID
Идентификатор кодека/Подсказка : XviD
Продолжительность : 2 ч. 4 м.
Битрейт : 1116 Кбит/сек
Ширина : 608 пикселей
Высота : 320 пикселей
Соотношение сторон : 1,900
Частота кадров : 23,976 (23976/1000) кадра/сек
Цветовое пространство : YUV
Субдискретизация насыщенности : 4:2:0
Битовая глубина : 8 бит
Тип развёртки : Прогрессивная
Метод сжатия : С потерями
Бит/(Пиксели*Кадры) : 0.239
Размер потока : 990 Мбайт (71%)
Библиотека кодирования : XviD 1.0.3 (UTC 2004-12-20)
Аудио
Идентификатор : 1
Формат : AC-3
Формат/Информация : Audio Coding 3
Расширение режима : CM (complete main)
Параметр Endianness формата : Big
Идентификатор кодека : 2000
Продолжительность : 2 ч. 4 м.
Вид битрейта : Постоянный
Битрейт : 448 Кбит/сек
Каналы : 6 каналов
Расположение каналов : Front: L C R, Side: L R, LFE
Частота : 48,0 КГц
Частота кадров : 31,250 кадров/сек (1536 spf)
Метод сжатия : С потерями
Размер потока : 397 Мбайт (28%)
Выравнивание : Разделение по промежуткам
Продолжительность промежутка : 42 мс. (1,00 видеокадр)
Время предзагрузки промежутка : 500 мс.

Скриншоты


[cybertorrent.ru].t60.torrent 
Торрент: Зарегистрирован [ 2018-02-15 13:57 ] · 815AF7D90C1EAAA498BBB850CFB1976256A3036B

Скачать .torrent

Скачать

14 KB

Статус: проверено
Скачан: 0 раз
Размер: 1,36 GB
Профиль [ЛС]
Показать сообщения:    

Текущее время: 23-Май 16:34

Часовой пояс: UTC ± 0



Вы не можете начинать темы
Вы не можете отвечать на сообщения
Вы не можете редактировать свои сообщения
Вы не можете удалять свои сообщения
Вы не можете голосовать в опросах
Вы не можете прикреплять файлы к сообщениям
Вы можете скачивать файлы