Статистика раздачи
Размер:  700 MB   |    Зарегистрирован:  3 месяца 8 дней   |    Скачан:  0 раз

Полного источника не было: Никогда

Личеров:  1  [  0 KB/s  ]  
 
   
 
 

lopster ®

Пол:
Не указан
Стаж:
3 месяца 8 дней
Сообщений:
612

Ангел смерти
Год выпуска: 2007
Жанр: мистика, триллер, драма
Продолжительность: 01:04:05
Режиссер: Дмитрий Глухов
В ролях: Сергей Агеев, Дмитрий Глухов, Роман Кривцов, Александр Василенко, Павел Кукушкин, Александра Константинова, Максим Романенко
Описание: Три истории. Три разных человека, которые даже не знают друг о друге. Они совершили грехи. Их выбрали. Они поплатятся...
Все раздачи фильма: Ангел смерти
Качество видео: DVDRip
Формат видео: AVI
Видео: 704x528 (1.33:1), 25 fps, DivX Codec 5.x or 6.x ~1296 kbps avg, 0.14 bit/pixel
Аудио: 48 kHz, Microsoft MPEG, 2 ch, ~224.00 kbps avg

MI

Код:Общее
Полное имя : C:\otkat\Видео\Ангел смерти\Angel_smerti_2007_DVDRip_by_rip_Prinz1978.[torrents.ru].avi
Формат : AVI
Формат/Информация : Audio Video Interleave
Размер файла : 700 Мбайт
Продолжительность : 1 ч. 4 м.
Общий поток : 1527 Кбит/сек
Программа кодирования : VirtualDubMod 1.5.4.1 (build 2178/release)
Библиотека кодирования : VirtualDubMod build 2178/release
Видео
Идентификатор : 0
Формат : MPEG-4 Visual
Параметр BVOP формата : 1
Параметр QPel формата : Нет
Параметр GMC формата : Без точки перехода
Параметр матрицы формата : Default (H.263)
Режим смешивания : Сжатый битовый поток
Идентификатор кодека : DX50
Идентификатор кодека/Подсказка : DivX 5
Продолжительность : 1 ч. 4 м.
Битрейт : 1296 Кбит/сек
Ширина : 704 пикселя
Высота : 528 пикселей
Соотношение сторон : 4:3
Частота кадров : 25,000 кадров/сек
Цветовое пространство : YUV
Субдискретизация насыщенности : 4:2:0
Битовая глубина : 8 бит
Тип развёртки : Прогрессивная
Метод сжатия : С потерями
Бит/(Пиксели*Кадры) : 0.139
Размер потока : 594 Мбайт (85%)
Библиотека кодирования : DivX 6.8.2 (UTC 2008-05-17)
Аудио
Идентификатор : 1
Формат : MPEG Audio
Версия формата : Version 1
Профиль формата : Layer 2
Идентификатор кодека : 50
Продолжительность : 1 ч. 4 м.
Вид битрейта : Постоянный
Битрейт : 224 Кбит/сек
Каналы : 2 канала
Частота : 48,0 КГц
Метод сжатия : С потерями
Размер потока : 103 Мбайт (15%)
Выравнивание : Соединение по промежуткам
Продолжительность промежутка : 80 мс. (2,00 видеокадра)
Время предзагрузки промежутка : 504 мс.

Скриншоты

[cybertorrent.ru].t61.torrent 
Торрент: Зарегистрирован [ 2018-02-15 13:57 ] · CFC13EB1E7F2AF8838BB0E8937A0E3A191DA9808

Скачать .torrent

Скачать

14 KB

Статус: проверено
Скачан: 0 раз
Размер: 700 MB
Профиль [ЛС]
Показать сообщения:    

Текущее время: 23-Май 16:43

Часовой пояс: UTC ± 0



Вы не можете начинать темы
Вы не можете отвечать на сообщения
Вы не можете редактировать свои сообщения
Вы не можете удалять свои сообщения
Вы не можете голосовать в опросах
Вы не можете прикреплять файлы к сообщениям
Вы можете скачивать файлы