Статистика раздачи
Размер:  1,37 GB   |    Зарегистрирован:  3 месяца 12 дней   |    Скачан:  0 раз

Полного источника не было: Никогда

Личеров:  1  [  0 KB/s  ]  
 
   
 
 

lopster ®

Пол:
Не указан
Стаж:
3 месяца 12 дней
Сообщений:
612

Два товарища
Год выпуска: 2001
Жанр: мелодрама
Продолжительность: 01:30:43
Режиссер: Валерий Пендраковский
В ролях: Юрий Мосейчук, Михаил Тарабукин, Ирина Малышева, Юлия Назаренко, Алексей Панин, Виктор Проскурин, Ирина Розанова, Ия Саввина
Описание: Двое молодых оболтусов весело коротают время, пробуя на вкус все прелести взрослой жизни. Середина 1960-х годов, время стиляг, виниловых пластинок и брюк "дудочкой". В провинциальном советском городе пацаны ходят на танцы, пробуют вино, знакомятся с девушками. Их жизнь полна приключений и соблазнов, но каждый из них выбирает свой путь в жизни...
Все раздачи фильма: Два товарища
Релиз от Принц1978
Качество видео: DVDRip
Формат видео: AVI
Видео: 720x544 (1.32:1), 25 fps, DivX Codec 5.05 ~1959 kbps avg, 0.20 bit/pixel
Аудио: 48 kHz, AC3 Dolby Digital, 2/0 (L,R) ch, ~192.00 kbps avg

MI

Код:Общее
Полное имя : C:\otkat\Видео\Два товарища\Dva.tovarisha.2008.DivX.DVDRip.Prinz.1978.[torrents.ru].avi
Формат : AVI
Формат/Информация : Audio Video Interleave
Размер файла : 1,37 Гбайт
Продолжительность : 1 ч. 30 м.
Общий поток : 2158 Кбит/сек
Программа кодирования : VirtualDubMod 1.5.4.1 (build 2178/release)
Библиотека кодирования : VirtualDubMod build 2178/release
Видео
Идентификатор : 0
Формат : MPEG-4 Visual
Параметр BVOP формата : Нет
Параметр QPel формата : Нет
Параметр GMC формата : Без точки перехода
Параметр матрицы формата : Default (H.263)
Идентификатор кодека : DX50
Идентификатор кодека/Подсказка : DivX 5
Продолжительность : 1 ч. 30 м.
Битрейт : 1959 Кбит/сек
Ширина : 720 пикселей
Высота : 544 пикселя
Соотношение сторон : 4:3
Частота кадров : 25,000 кадров/сек
Цветовое пространство : YUV
Субдискретизация насыщенности : 4:2:0
Битовая глубина : 8 бит
Тип развёртки : Прогрессивная
Метод сжатия : С потерями
Бит/(Пиксели*Кадры) : 0.200
Размер потока : 1,24 Гбайт (91%)
Библиотека кодирования : DivX 5.0.5 (UTC 2003-04-24)
Аудио
Идентификатор : 1
Формат : AC-3
Формат/Информация : Audio Coding 3
Расширение режима : CM (complete main)
Параметр Endianness формата : Big
Идентификатор кодека : 2000
Продолжительность : 1 ч. 30 м.
Вид битрейта : Постоянный
Битрейт : 192 Кбит/сек
Каналы : 2 канала
Расположение каналов : Front: L R
Частота : 48,0 КГц
Частота кадров : 31,250 кадров/сек (1536 spf)
Метод сжатия : С потерями
Размер потока : 125 Мбайт (9%)
Выравнивание : Разделение по промежуткам
Продолжительность промежутка : 96 мс. (2,40 видеокадра)
Время предзагрузки промежутка : 96 мс.

Скриншоты

[cybertorrent.ru].t62.torrent 
Торрент: Зарегистрирован [ 2018-02-15 13:57 ] · 1C83D5CE944DAD79861DBB27019C0EECFC5ADE5E

Скачать .torrent

Скачать

14 KB

Статус: проверено
Скачан: 0 раз
Размер: 1,37 GB
Профиль [ЛС]
Показать сообщения:    

Текущее время: 28-Май 08:11

Часовой пояс: UTC ± 0



Вы не можете начинать темы
Вы не можете отвечать на сообщения
Вы не можете редактировать свои сообщения
Вы не можете удалять свои сообщения
Вы не можете голосовать в опросах
Вы не можете прикреплять файлы к сообщениям
Вы можете скачивать файлы