BitTorrent клиенты



Декстер / Dexter / Сезон: 5 / Серии: 1-12 (12) (Маркос Сига, Тим Хантер, Кит Гордон) [2010, США, драма, детектив, криминал, триллер, BDRip] MVO (NovaFilm)

Ответить на тему
 
Автор Сообщение

craft ®

Пол: Не указан

Стаж: 1 год

Сообщений: 727

Создавать темы 12-Фев-2018 14:19

[Цитировать]

Декстер (Сезон 5) / Dexter (Season 5) (2010) BDRip
Год выпуска: 2010
Страна: США | (Showtime)
Жанр: триллер, драма, криминал, детектив
Продолжительность: ~ 00:55:00 х 12
Перевод: Профессиональный (многоголосый, закадровый) /NovaFilm/
Субтитры: Нет
Режиссер: Маркос Сига, Тим Хантер, Кит Гордон
В ролях:
Майкл Холл, Джули Бенц, Дженифер Карпентер, Лорен Велез, Дэвид Зайяс, Джеймс Ремар и другие...
Описание:
Я — Декстер. Декстер Морган. Я работаю судмедэкспертом в полиции Майами. Я не понимаю любви, мне безразличен секс, и у меня нет чувств. А еще я серийный убийца.
Мой отец был полицейским, и прекрасно обучил меня прятать улики. Обычным гражданам не стоит меня бояться, я убиваю только преступников, подонков, до которых почему-либо не смогла или не захотела добраться полиция. Я убиваю их, аккуратно распиливаю на части, и избавляюсь от трупов. Убийство для меня — творческий акт, искусство.
Но однажды… В Майами появляется некто, равный мне. Даже превзошедший меня. Сумевший меня заинтересовать. Предложивший мне своего рода товарищеское состязание. Кто этот загадочный и неуловимый «икс»..?
&
Внимание! В сериале присутствует ненормативная лексика!
Релиз от -
Автор рипа: Serval
Качество: BDRip (источник: CHDBits / Blu-Ray 1080p)
Формат: AVI
Видео кодек: Xvid
Аудио кодек: AC3
Видео: 720x400 (1.80:1), 23.976 fps, XviD build 64 ~1994 kbps avg, 0.29 bit/pixel
Аудио: 48 kHz, AC3 Dolby Digital, 3/2 (L,C,R,l,r) + LFE ch, ~384.00 kbps avg - (NovaFilm)
Скачать: СэмплВсе раздачи сериала
-

Список эпизодов:

Эпизод 01: Моя вина / My Bad
Эпизод 02: Привет, Бандит / Hello, Bandit
Эпизод 03: Практически Идеал / Practically Perfect
Эпизод 04: Красавица и Чудовище / Beauty and the Beast
Эпизод 05: Первая Кровь / First Blood
Эпизод 06: Полная ИлЛюменация / Everything Is Illumenated
Эпизод 07: Круг Света / Circle Us
Эпизод 08: Возьми! / Take it!
Эпизод 09: Город Потерянных Детей / Teenage Wasteland
Эпизод 10: В Начале Было... / In the Beginning
Эпизод 11: Уходящий Поезд / Hop a Freighter
Эпизод 12: Самое Главное / The Big One

MI

Код:Общее
Полное имя : Dexter.S05E01.2010.RUS.BDRip.XviD.AC3.-HELLYWOOD.avi
Формат : AVI
Формат/Информация : Audio Video Interleave
Размер файла : 931 Мбайт
Продолжительность : 54 м.
Общий поток : 2388 Кбит/сек
Программа кодирования : VirtualDubMod 1.5.10.2 (build 2542/release)
Видео
Идентификатор : 0
Формат : MPEG-4 Visual
Профиль формата : Advanced Simple@L5
Параметр BVOP формата : 1
Параметр QPel формата : Нет
Параметр GMC формата : Без точки перехода
Параметр матрицы формата : Выборочная
Идентификатор кодека : XVID
Идентификатор кодека/Подсказка : XviD
Продолжительность : 54 м.
Битрейт : 1995 Кбит/сек
Ширина : 720 пикс.
Высота : 400 пикс.
Соотношение сторон : 16:9
Частота кадров : 23,976 кадр/сек
Цветовое пространство : YUV
Подвыборка цветности : 4:2:0
Битовая глубина : 8 бит
Тип развёртки : Прогрессивная
Метод сжатия : С потерями
Бит/(Пиксели*Кадры) : 0.289
Размер потока : 778 Мбайт (84%)
Библиотека кодирования : XviD 64
Аудио
Идентификатор : 1
Формат : AC-3
Формат/Информация : Audio Coding 3
Расширение режима : CM (complete main)
Идентификатор кодека : 2000
Продолжительность : 54 м.
Вид битрейта : Постоянный
Битрейт : 384 Кбит/сек
Каналы : 6 каналов
Расположение каналов : Front: L C R, Side: L R, LFE
Частота : 48,0 КГц
Битовая глубина : 16 бит
Метод сжатия : С потерями
Размер потока : 150 Мбайт (16%)
Выравнивание : Разделение по промежуткам
Продолжительность промежутка : 42 мс. (1,00 видеокадр)
Время предзагрузки промежутка : 500 ms
[Профиль] [ЛС]
Показать сообщения:    
Ответить на тему

Текущее время: 22-Фев 03:42

Часовой пояс: UTC + 3



Вы не можете начинать темы
Вы не можете отвечать на сообщения
Вы не можете редактировать свои сообщения
Вы не можете удалять свои сообщения
Вы не можете голосовать в опросах
Вы не можете прикреплять файлы к сообщениям
Вы можете скачивать файлы