Статистика раздачи
Размер:  3,88 GB   |    Зарегистрирован:  5 месяцев 2 дня   |    Скачан:  0 раз

Полного источника не было: Никогда

 
   
 
 

antikvar ®

Пол:
Не указан
Стаж:
5 месяцев 3 дня
Сообщений:
50

[Выпуск 1] | [Выпуск 2] | [Выпуск 3] | [Выпуск 4] | [Выпуск 5]-Человек-паук. Выпуск 3. Сорвиголова против Человека-паука / Spider-Man 3: Daredevil vs Spiderman
Год выпуска: 1994
Страна: США
Жанр: Мультфильм
Продолжительность: 80 мин.
Перевод: Профессиональный (многоголосый, закадровый)
Режиссер: Лэрри Пэдличи,Джон Семпер
Описание:
Два легендарных супергероя сталкиваются лицом к лицу! Сорвиголова против Человека-паука в борьбе за справедливость!
Живущий в мире вечной тьмы адвокат Мэтт Мэрдок днем защищает Питера Паркера, а ночью выходит на улицы, сметая всех со своего пути в стремлении к правде… и мести.
В этой серии вы познакомитесь с легендарным Сорвиголовой - "человеком, не знающим страха" - и станете свидетелем его нового союза с Человеком-пауком в борьбе против главного врага - Кингпина!
Доп. информация: Это третий выпуск, всего их 5!
Качество: DVD5
Формат: DVD Video
Видео: Video: PAL 4:3 (720x576) VBR
Аудио: Russian (Dolby AC3, 6 ch), English (Dolby AC3, 6 ch),
Субтитры:Russian

DVDInfo

Код:Title: SPIDERMAN_PART_03
Size: 3.88 Gb ( 4 069 138,00 KBytes ) - DVD-5
Enabled regions: 1, 2, 3, 4, 5, 6, 7, 8
VTS_01 :
Play Length: 00:00:04
Video: PAL 4:3 (720x576) VBR
VTS_02 :
Play Length: 00:00:12
Video: PAL 4:3 (720x576) VBR
Audio:
Not specified (Dolby AC3, 3 ch)
VTS_03 :
Play Length: 01:20:11
Video: PAL 4:3 (720x576) VBR
Audio:
Russian (Dolby AC3, 6 ch)
English (Dolby AC3, 6 ch)
Subtitles:
Russian
* Menus Information *
VIDEO_TS Menu
Video:
PAL 4:3 (720x576) VBR
English Language Unit :
Title Menu
VTS_01 Menu
Video:
PAL 4:3 (720x576) VBR
Audio:
Not specified (Dolby AC3, 2 ch)
English Language Unit :
Root Menu
VTS_02 Menu
Video:
PAL 4:3 (720x576) VBR
English Language Unit :
Root Menu
VTS_03 Menu
Video:
PAL 4:3 (720x576) VBR
English Language Unit :
Root Menu

MediaInfo

Код:General
Complete name : VTS_03_1.VOB
Format : MPEG-PS
File size : 1 024 MiB
Duration : 20mn 59s
Overall bit rate mode : Variable
Overall bit rate : 6 819 Kbps
Video
ID : 224 (0xE0)
Format : MPEG Video
Format version : Version 2
Format profile : Main@Main
Format settings, BVOP : Yes
Format settings, Matrix : Custom
Format settings, GOP : Variable
Duration : 20mn 59s
Bit rate mode : Variable
Bit rate : 5 916 Kbps
Maximum bit rate : 9 800 Kbps
Width : 720 pixels
Height : 576 pixels
Display aspect ratio : 4:3
Frame rate : 25.000 fps
Standard : PAL
Color space : YUV
Chroma subsampling : 4:2:0
Bit depth : 8 bits
Scan type : Interlaced
Scan order : Bottom Field First
Compression mode : Lossy
Bits/(Pixel*Frame) : 0.571
Time code of first frame : 01:00:00:00
Time code source : Group of pictures header
Stream size : 888 MiB (87%)
Audio #1
ID : 189 (0xBD)-128 (0x80)
Format : AC-3
Format/Info : Audio Coding 3
Mode extension : CM (complete main)
Format settings, Endianness : Big
Muxing mode : DVD-Video
Duration : 20mn 59s
Bit rate mode : Constant
Bit rate : 384 Kbps
Channel(s) : 6 channels
Channel positions : Front: L C R, Side: L R, LFE
Sampling rate : 48.0 KHz
Bit depth : 16 bits
Compression mode : Lossy
Stream size : 57.6 MiB (6%)
Audio #2
ID : 189 (0xBD)-129 (0x81)
Format : AC-3
Format/Info : Audio Coding 3
Mode extension : CM (complete main)
Format settings, Endianness : Big
Muxing mode : DVD-Video
Duration : 20mn 59s
Bit rate mode : Constant
Bit rate : 384 Kbps
Channel(s) : 6 channels
Channel positions : Front: L C R, Side: L R, LFE
Sampling rate : 48.0 KHz
Bit depth : 16 bits
Compression mode : Lossy
Stream size : 57.6 MiB (6%)
Menu

Скриншоты

[cybertorrent.ru].t625.torrent 
Торрент: Зарегистрирован [ 2018-02-15 20:34 ] · 7F30F4FF2C8D3A3BE2C5601712253AAC3BA8C54F

Скачать .torrent

Скачать

21 KB

Статус: проверено
Скачан: 0 раз
Размер: 3,88 GB
Профиль [ЛС]
Показать сообщения:    

Текущее время: 18-Июл 14:23

Часовой пояс: UTC ± 0



Вы не можете начинать темы
Вы не можете отвечать на сообщения
Вы не можете редактировать свои сообщения
Вы не можете удалять свои сообщения
Вы не можете голосовать в опросах
Вы не можете прикреплять файлы к сообщениям
Вы можете скачивать файлы