Статистика раздачи
Размер:  1,17 GB   |    Зарегистрирован:  3 месяца 6 дней   |    Скачан:  0 раз

Полного источника не было: Никогда

Личеров:  1  [  0 KB/s  ]  
 
   
 
 

Red ®

Пол:
Не указан
Стаж:
3 месяца 6 дней
Сообщений:
245

Comedy Club на Первом (выпуск 4)
Дата/Год выпуска: 06.04.2007
Страна: Россия
Жанр: Юмор
Продолжительность: 01:28:02
Перевод: Не требуется
Русские субтитры: нет
Телеканал: Первый канал

Описание: Статистики утверждают, что больше всего официальных праздников в Японии. Но мы-то знаем, что большего всего празднующих у нас в стране. Поэтому мы решили объявить новый праздник: праздник Comedy на Первом от KVNforAll!!
Качество: SATRip
Формат: AVI
Видео: DivX 5 640x480 25fps
Аудио: MP3 48000Hz mono 96kbps

Афишка

Гарик Харламов, Тимур Батрутдинов
- олигархи
- самый неадекватный человек в мире
Тимур Родригес, Макс Перлов
- что бы было, если бы Майкл Джексон был самым популярным российским певцом (Дмитрий Сорокин)
Павел Воля
- группа Самоцветы, группа Корни, Настя Кочеткова, Вера Глаголева, Эвелина Блёданс

Александр Ревва, Гарик Мартиросян
- удивительная и уникальная покупка
Сестры Зайцевы
- чемпион мира по тостам
Незлобин
- что такое неудобно
Гарик Харламов, Гарик Мартиросян
- Поле чудес на японском первом канале
- что бы было, если бы в фильме "Три Мушкетера" была скрытая реклама
Дмитрий Сорокин
- про то, как я весело отметил Новый год
- всем косящим от армии
- про людей, у которых бывают редко праздники
- про людей необычной профессии
- всем тем, кто отдыхал в этом году на море
Гарик Харламов, Тимур Батрутдинов
- фейсконтрольщик ночного клуба
Таир
- анонс российских праздники
Александр Ревва, Вадим Галыгин
- сказка Иван царевич и чудище поганое
Гарик Мартиросян, Евгений Агабеков, Макс Перлов
- Просто блюз
Сергей Бессмертный
- Что будет, если президентом станет женщина
Александр Ревва
- Кузьмич разговаривает по телефону
- фокусник Геннадий
Тимур Родригес, Макс Перлов
- утро после праздников
Вадим Галыгин
- Раскопки-3 (Гарик Харламов)
Гарик Мартиросян
- презентация будущих несуществующих хитов наших звезд
- будущий хит Аллы Пугачевой "Зеленый шарик" (Макс Перлов)
Практически весь Камеди на Первом
- Блюз

Скриншоты

MediaInfo

General
Format : AVI
Format/Info : Audio Video Interleave
File size : 1.17 GiB
Duration : 1 h 28 min
Overall bit rate : 1 906 kb/s
Movie name : post.kvn.comedy.club.1kanal.(04).by.s@nya [6.04.07]
Writing application : VirtualDubMod 1.5.10.2 (build 2540/release)
Writing library : VirtualDubMod build 2540/release
Copyright : www.nash.net.ua & www.kvnforall.info
Video
ID : 0
Format : MPEG-4 Visual
Format settings, BVOP : 1
Format settings, QPel : No
Format settings, GMC : No warppoints
Format settings, Matrix : Default (H.263)
Muxing mode : Packed bitstream
Codec ID : DX50
Codec ID/Hint : DivX 5
Duration : 1 h 28 min
Bit rate : 1 801 kb/s
Nominal bit rate : 4 854 kb/s
Width : 640 pixels
Height : 480 pixels
Display aspect ratio : 4:3
Frame rate : 25.000 FPS
Color space : YUV
Chroma subsampling : 4:2:0
Bit depth : 8 bits
Scan type : Progressive
Compression mode : Lossy
Bits/(Pixel*Frame) : 0.234
Stream size : 1.11 GiB (94%)
Writing library : DivX 6.2.5 (UTC 2006-06-16)
Audio
ID : 1
Format : MPEG Audio
Format version : Version 1
Format profile : Layer 3
Codec ID : 55
Codec ID/Hint : MP3
Duration : 1 h 28 min
Bit rate mode : Constant
Bit rate : 96.0 kb/s
Channel(s) : 1 channel
Sampling rate : 48.0 kHz
Compression mode : Lossy
Stream size : 60.5 MiB (5%)
Alignment : Split accross interleaves
Interleave, duration : 40 ms (1.00 video frame)
Interleave, preload duration : 500 ms
Рип предоставлен: LOVe
Афишка: azl
Команда желает вам веселого просмотра!
Все выпуски Comedy Club на Первом
[cybertorrent.ru].t632.torrent 
Торрент: Зарегистрирован [ 2018-02-15 20:34 ] · F79E76382E4CF1EF1F972DF82677F1F0004851AD

Скачать .torrent

Скачать

12 KB

Статус: проверено
Скачан: 0 раз
Размер: 1,17 GB
Профиль [ЛС]
Показать сообщения:    

Текущее время: 22-Май 00:00

Часовой пояс: UTC ± 0



Вы не можете начинать темы
Вы не можете отвечать на сообщения
Вы не можете редактировать свои сообщения
Вы не можете удалять свои сообщения
Вы не можете голосовать в опросах
Вы не можете прикреплять файлы к сообщениям
Вы можете скачивать файлы