BitTorrent клиенты



Опасные связи / Relaciones Peligrosas / Серии: 1-14 (108) (Vicente Albarracín, Mariano Calasso, Ricardo Schwarz) [2012, США, Драма,TVRip, DVO(R.G. TheAngelOfDeath&SweetySacrifice)]

Ответить на тему
 
Автор Сообщение

Dream ®

Пол: Не указан

Стаж: 1 год

Сообщений: 816

Создавать темы 12-Фев-2018 21:19

[Цитировать]

Опасные связи / Relaciones Peligrosas
--Год выпуска: 2012
Страна: США
Производство: Telemundo
Жанр: Драма, комедия
Серии (количество): 1-14 (108)
Продолжительность: ~ 00:55:00
Перевод: RG TheAngelOfDeath & SweetySacrifice
Субтитры: Отсутствуют--Режиссёр: Vicente Albarracín, Mariano Calasso, Ricardo Schwarz-В ролях: Сандра Эчеверриа, Анна Лаевская, Гонсало Гарсиа Виванко, Марица Бустаманте, Мерседес Молто,Карлос Ферро, Хорхе Консехо, Орландо Финдичели и мн. др.-Описание: «Опасные связи» - латиноамериканская версия нашумевшего на весь мир испанского сериала «Физика или химия». Школа, которая на первый взгляд выглядит образцово-показательным учебным учреждением, при более пристальном рассмотрении становится эпицентром эмоций, чувств и интриг. Нерушимая дружба и коварные предательства, конфликты и страдания, истории любви и потерь - как и в испанском сериале, в этот единый круговорот событий оказываются втянуты учителя, учащиеся и их родители, только в этот раз спокойное европейское общество сменится темпераментным латиноамериканским миром...--Семпл
Ссылка на предыдущие и альтернативные раздачи
Качество: TVRip
Формат: Avi (1-8 серии)
Видео кодек: XviD
Аудио кодек: MP3, AC-3
Видео: 848x480 (1.77:1), 29.970 fps, XviD build 62 ~1513 kbps
Аудио: MPEG Layer 3 , at ~128.00 kbps, 2 ch, 44.1 kHz [RG TheAngelOfDeath & SweetySacrifice]
Формат:MKV (9-14 серии)
Видео кодек: AVC
Аудио кодек: AC-3
Видео: 848x480 (1.77:1), 29.970 fps, AVC, ~1513 kbps
Аудио: AC-3 at 192 Кбит/сек, 2 ch, 48,0 kHz [RG TheAngelOfDeath & SweetySacrifice]

MI

General
Complete name : Relaciones Peligrosas\1_seriya_theangelofdeathsweetysacrifice.avi
Format : AVI
Format/Info : Audio Video Interleave
File size : 572 MiB
Duration : 43mn 19s
Overall bit rate : 1 845 Kbps
Writing application : VirtualDubMod 1.5.10.2 (build 2540/release)
Writing library : VirtualDubMod build 2540/release
Video
ID : 0
Format : MPEG-4 Visual
Format profile : Advanced Simple@L5
Format settings, BVOP : No
Format settings, QPel : No
Format settings, GMC : No warppoints
Format settings, Matrix : Default (MPEG)
Codec ID : XVID
Codec ID/Hint : XviD
Duration : 43mn 19s
Bit rate : 1 513 Kbps
Width : 848 pixels
Height : 480 pixels
Display aspect ratio : 16:9
Frame rate : 29.970 fps
Color space : YUV
Chroma subsampling : 4:2:0
Bit depth : 8 bits
Scan type : Progressive
Compression mode : Lossy
Bits/(Pixel*Frame) : 0.124
Stream size : 469 MiB (82%)
Writing library : XviD 62
Audio
ID : 1
Format : MPEG Audio
Format version : Version 1
Format profile : Layer 3
Codec ID : 55
Codec ID/Hint : MP3
Duration : 43mn 19s
Bit rate mode : Constant
Bit rate : 320 Kbps
Channel(s) : 2 channels
Sampling rate : 44.1 KHz
Compression mode : Lossy
Stream size : 99.2 MiB (17%)
Alignment : Split accross interleaves
Interleave, duration : 33 ms (1.00 video frame)
Interleave, preload duration : 500 ms

Скриншоты


[Профиль] [ЛС]
Показать сообщения:    
Ответить на тему

Текущее время: 22-Фев 03:07

Часовой пояс: UTC + 3



Вы не можете начинать темы
Вы не можете отвечать на сообщения
Вы не можете редактировать свои сообщения
Вы не можете удалять свои сообщения
Вы не можете голосовать в опросах
Вы не можете прикреплять файлы к сообщениям
Вы можете скачивать файлы