Статистика раздачи
Размер:  745 MB   |    Зарегистрирован:  2 месяца 19 дней   |    Скачан:  0 раз

Полного источника не было: Никогда

 
     
 
 

Scot ®

Пол:
Мужской
Стаж:
3 месяца 22 дня
Сообщений:
69

-Тёмная сторона / Bloodline-«Посмотри тьме в глаза»- -Страна: США
Жанр: ужасы, триллер
Год выпуска: 2018
Продолжительность: 01:36:48-Перевод: Одноголосый закадровый BadBajo
Субтитры: нет
Оригинальная аудиодорожка: нет-Режиссер: Генри Джейкобсон / Henry Jacobson-В ролях: Шонн Уильям Скотт, Мариэла Гаррига, Дейл Дикки, Кевин Кэрролл, Кристи Херринг, Рэймонд Александр Чэм мл., Лейт М. Бурк, Ник Борэйни, Дасти Сорг, Шон Х. Скалли-Описание: В жизни Эвана все прекрасно и стабильно — любящая жена, маленький ребенок и интересная работа школьного психолога. Но никто из окружающих не догадывается, что у жизни Эвана есть и другая, тёмная сторона, на которую лучше не заходить никому.- - -Качество видео: WEB-DLRip / WEB-DL 1080p
Формат видео: AVI-Видео: XviD, 672x336 (2.000), 23.976 fps, ~939 kbps avg, 0.173 bit/pixel
Аудио: 48 kHz, MP3, 2/0 (L,R) ch, ~128 kbps avg-

MediaInfo

Код:Complete name : D:\Раздача\Тёмная сторона (2018) WEB-DLRip_ivanes.avi
Format : AVI
Format/Info : Audio Video Interleave
File size : 745 MiB
Duration : 1 h 36 min
Overall bit rate : 1 076 kb/s
Writing application : VirtualDubMod 1.5.10.3 (build 2550/release)
Writing library : VirtualDubMod build 2550/release
Video
ID : 0
Format : MPEG-4 Visual
Format profile : Advanced Simple@L5
Format settings : BVOP1 / Custom Matrix
Format settings, BVOP : 1
Format settings, QPel : No
Format settings, GMC : No warppoints
Format settings, Matrix : Custom
Codec ID : XVID
Codec ID/Hint : XviD
Duration : 1 h 36 min
Bit rate : 939 kb/s
Width : 672 pixels
Height : 336 pixels
Display aspect ratio : 2.000
Frame rate : 23.976 (24000/1001) FPS
Color space : YUV
Chroma subsampling : 4:2:0
Bit depth : 8 bits
Scan type : Progressive
Compression mode : Lossy
Bits/(Pixel*Frame) : 0.173
Stream size : 650 MiB (87%)
Writing library : XviD 67
Audio
ID : 1
Format : MPEG Audio
Format version : Version 1
Format profile : Layer 3
Format settings : Joint stereo / MS Stereo
Codec ID : 55
Codec ID/Hint : MP3
Duration : 1 h 36 min
Bit rate mode : Constant
Bit rate : 128 kb/s
Channel(s) : 2 channels
Sampling rate : 48.0 kHz
Frame rate : 41.667 FPS (1152 SPF)
Compression mode : Lossy
Stream size : 88.6 MiB (12%)
Alignment : Aligned on interleaves
Interleave, duration : 42 ms (1.00 video frame)
Interleave, preload duratio : 504 ms
Writing library : LAME3.100
Encoding settings : -m j -V 4 -q 2 -lowpass 17 -b 128

Скриншоты

[cybertorrent.ru].t6450.torrent 
Торрент: Зарегистрирован [ 2019-09-20 16:36 ] · 88D48B83196B7AB9879FCF9D5EAFCCAFF9A49711

Скачать .torrent

Скачать

15 KB

Статус: проверено
Скачан: 0 раз
Размер: 745 MB
terms.php
Профиль [ЛС]
Показать сообщения:    

Текущее время: 10-Дек 00:13

Часовой пояс: UTC ± 0



Вы не можете начинать темы
Вы не можете отвечать на сообщения
Вы не можете редактировать свои сообщения
Вы не можете удалять свои сообщения
Вы не можете голосовать в опросах
Вы не можете прикреплять файлы к сообщениям
Вы можете скачивать файлы