Статистика раздачи
Размер:  1,46 GB   |    Зарегистрирован:  2 месяца 18 дней   |    Скачан:  0 раз

Полного источника не было: Никогда

 
     
 
 

Гость ®

Пол:
Не указан

Взрыватель / Опасный противник / Сила мщения / Blastfighter / Force of Vengeance
Страна: Италия, Франция, США
Жанр: боевик, драма, криминал, детектив
Год выпуска: 1984
Продолжительность: 01:29:29
Перевод: Одноголосый закадровый - неизвестный студии "Святослав"
Субтитры: нет
Оригинальная аудиодорожка: английский
Режиссер: Ламберто Бава / Lamberto Bava
В ролях: Майкл Сопкив, Валентина Форте, Джордж Истмен, Stefano Mingardo, Ottaviano Dell'Acqua, Микеле Соави, Элизабет Форбс, Карл Сэвадж, Джордж Уильямс
Описание: Главный герой Джон Шарп отсидел 8 лет за убийство убийцы своей жены. Теперь он вышел на свободу и решает уйти из мира людей и поселиться в домике в лесу среди дикой природы. Но и там ему не дают покоя: местные отморозки начинают задираться к нему и, в конце концов, убивают его дочь и её друзей. Тогда отставной полицейский решается на кровавую месть и в одиночку расправляется с целой бандой…
Сэмпл
Качество видео: HDRip [Blastfighter.1984.1080p.BluRay.x264-MELiTE]
Формат видео: AVI
Видео: 720x432 (1.67:1), 23.976 fps, XviD build 73 ~1935 kbps avg, 0.26 bit/pixel
Аудио: 48 kHz, AC3 Dolby Digital, 2/0 (L,R) ch, ~192 kbps - одноголосый
Аудио: 48 kHz, AC3 Dolby Digital, 2/0 (L,R) ch, ~192 kbps - оригинал

MediaInfo

Общее
Полное имя : S:\Мои раздачи_7\Blastfighter.1984.hdrip_[1.46]_[teko].avi
Формат : AVI
Формат/Информация : Audio Video Interleave
Размер файла : 1,46 Гбайт
Продолжительность : 1 ч. 29 м.
Общий поток : 2334 Кбит/сек
Программа кодирования : VirtualDubMod 1.5.10.3 | www.virtualdub-fr.org || (build 2550/release)
Библиотека кодирования : VirtualDubMod build 2550/release
Видео
Идентификатор : 0
Формат : MPEG-4 Visual
Профиль формата : Advanced Simple@L5
Параметр BVOP формата : 2
Параметр QPel формата : Нет
Параметр GMC формата : Без точки перехода
Параметр матрицы формата : Выборочная
Идентификатор кодека : XVID
Идентификатор кодека/Подсказка : XviD
Продолжительность : 1 ч. 29 м.
Битрейт : 1936 Кбит/сек
Ширина : 720 пикселей
Высота : 432 пикселя
Соотношение сторон : 1,667
Частота кадров : 23,976 кадра/сек
Цветовое пространство : YUV
Субдискретизация насыщенности : 4:2:0
Битовая глубина : 8 бит
Тип развёртки : Прогрессивная
Метод сжатия : С потерями
Бит/(Пиксели*Кадры) : 0.260
Размер потока : 1,21 Гбайт (83%)
Библиотека кодирования : XviD 73
Аудио #1
Идентификатор : 1
Формат : AC-3
Формат/Информация : Audio Coding 3
Расширение режима : CM (complete main)
Параметр Endianness формата : Big
Идентификатор кодека : 2000
Продолжительность : 1 ч. 29 м.
Вид битрейта : Постоянный
Битрейт : 192 Кбит/сек
Каналы : 2 канала
Расположение каналов : Front: L R
Частота : 48,0 КГц
Битовая глубина : 16 бит
Метод сжатия : С потерями
Размер потока : 123 Мбайт (8%)
Выравнивание : Разделение по промежуткам
Продолжительность промежутка : 42 мс. (1,00 видеокадр)
Время предзагрузки промежутка : 500 мс.
Аудио #2
Идентификатор : 2
Формат : AC-3
Формат/Информация : Audio Coding 3
Расширение режима : CM (complete main)
Параметр Endianness формата : Big
Идентификатор кодека : 2000
Продолжительность : 1 ч. 29 м.
Вид битрейта : Постоянный
Битрейт : 192 Кбит/сек
Каналы : 2 канала
Расположение каналов : Front: L R
Частота : 48,0 КГц
Битовая глубина : 16 бит
Метод сжатия : С потерями
Размер потока : 123 Мбайт (8%)
Выравнивание : Разделение по промежуткам
Продолжительность промежутка : 42 мс. (1,00 видеокадр)
Время предзагрузки промежутка : 500 мс.
Релиз группы:
--
[cybertorrent.ru].t6474.torrent 
Торрент: Зарегистрирован [ 2019-09-21 17:06 ] · 49CF02D0B2FFB2E3CF7EE8558AA82F656121AB5A

Скачать .torrent

Скачать

15 KB

Статус: проверено
Скачан: 0 раз
Размер: 1,46 GB
terms.php
Показать сообщения:    

Текущее время: 10-Дек 00:19

Часовой пояс: UTC ± 0



Вы не можете начинать темы
Вы не можете отвечать на сообщения
Вы не можете редактировать свои сообщения
Вы не можете удалять свои сообщения
Вы не можете голосовать в опросах
Вы не можете прикреплять файлы к сообщениям
Вы можете скачивать файлы