Статистика раздачи
Размер:  1,99 GB   |    Зарегистрирован:  2 месяца 20 дней   |    Скачан:  0 раз

Полного источника не было: Никогда

 
     
 
 

Гость ®

Пол:
Не указан

Странная любовь / Eine sonderbare Liebe [Советская прокатная копия]- Страна: ГДР
Жанр: драма
Год выпуска: 1984
Продолжительность: 01:24:47-Перевод: Профессиональный (дублированный) - Киностудия "Мосфильм"
Субтитры: нет-Режиссер: Лотар Варнеке / Lothar Warneke
В ролях: Кристина Шорн, Йорг Гудзун, Майк Грегор, Карстен Фэлке, Франц Фиман, Петер Зодан, Рольф Людвиг, Аннемоне Хазе, Ульрих Аншутц, Петра Кейль...- | Релиз: -Описание: После горячей вечеринки в компании, Сибилле и Харальд, которым за тридцать, проводят ночь вместе. Позже они встречаются и решают вступить в строго интеллектуальные отношения. Он вдовец с двумя сыновьями, младший сын только что пошёл в школу. Она не замужем и вполне довольна отношениями с женатым коллегой. Внезапно Сибилль бросает свою работу в столовой для сотрудников компании и с пламенным рвением ставит перед собой задачу: привести в порядок семейную жизнь Харальда, выворачивая наизнанку сложившийся жизненный уклад. Харальд, привыкший к тишине и спокойствию, начинает пытаться избегать ежедневных встреч с ней...-Семпл: http://sendfile.su/1517353-Тип релиза: VHSRip
Контейнер: MPG
Видео: 720x576 (4:3) @ 768x576, 25.000 fps, MPEG-2 Video, ~3106 Kbps, 0.300 bits/pixel
Аудио: Русский, 48.0 KHz, AC3, 2 ch, 192 Kbps

MediaInfo

General
Complete name : Странная любовь 1984 Dub Мосфильм.mpg
Format : MPEG-PS
File size : 1.99 GiB
Duration : 1 h 24 min
Overall bit rate mode : Variable
Overall bit rate : 3 365 kb/s
Video
ID : 224 (0xE0)
Format : MPEG Video
Format version : Version 2
Format profile : Main@Main
Format settings : BVOP
Format settings, BVOP : Yes
Format settings, Matrix : Default
Format settings, GOP : M=3, N=12
Duration : 1 h 24 min
Bit rate mode : Variable
Bit rate : 3 106 kb/s
Maximum bit rate : 9 508 kb/s
Width : 720 pixels
Height : 576 pixels
Display aspect ratio : 4:3
Frame rate : 25.000 FPS
Standard : PAL
Color space : YUV
Chroma subsampling : 4:2:0
Bit depth : 8 bits
Scan type : Progressive
Compression mode : Lossy
Bits/(Pixel*Frame) : 0.300
Time code of first frame : 00:00:00:00
Time code source : Group of pictures header
GOP, Open/Closed : Closed
Stream size : 1.84 GiB (92%)
Audio
ID : 189 (0xBD)-128 (0x80)
Format : AC-3
Format/Info : Audio Coding 3
Commercial name : Dolby Digital
Muxing mode : DVD-Video
Duration : 1 h 24 min
Bit rate mode : Constant
Bit rate : 192 kb/s
Channel(s) : 2 channels
Channel layout : L R
Sampling rate : 48.0 kHz
Frame rate : 31.250 FPS (1536 SPF)
Bit depth : 16 bits
Compression mode : Lossy
Stream size : 116 MiB (6%)
Service kind : Complete Main
[cybertorrent.ru].t6480.torrent 
Торрент: Зарегистрирован [ 2019-09-21 17:06 ] · 55316B1770360D9F40CBB32BE431D45EE910B77B

Скачать .torrent

Скачать

20 KB

Статус: проверено
Скачан: 0 раз
Размер: 1,99 GB
terms.php
Показать сообщения:    

Текущее время: 11-Дек 21:34

Часовой пояс: UTC ± 0



Вы не можете начинать темы
Вы не можете отвечать на сообщения
Вы не можете редактировать свои сообщения
Вы не можете удалять свои сообщения
Вы не можете голосовать в опросах
Вы не можете прикреплять файлы к сообщениям
Вы можете скачивать файлы