Статистика раздачи
Размер:  2,62 GB   |    Зарегистрирован:  2 месяца 24 дня   |    Скачан:  0 раз

Полного источника не было: Никогда

 
     
 
 

Гость ®

Пол:
Не указан

Поездка в Индию / Путешествие в Индию / A Passage to India
Страна: США, Великобритания
Жанр: драма, приключения, исторический
Год выпуска: 1984
Продолжительность: 02:43:57
Перевод: Профессиональный (двухголосый закадровый)
Субтитры: русские (rz5), английские
Оригинальная аудиодорожка: английский
Режиссер: Дэвид Лин / David Lean
В ролях: Джуди Дэвис, Виктор Банерджи, Пегги Эшкрофт, Джеймс Фокс, Алек Гиннесс, Найджел Хэверс, Ричард Уилсон, Антония Пембертон, Майкл Калвер, Арт Малик
Описание: Действие этого фильма происходит в двадцатые годы. Столкновение культур Востока и Запада показано на материале нетривиальной поездки молодой своенравной англичанки в Индию.
Сэмпл
Качество видео: HDRip [A Passage to India 1984 BDRip 1080p TrueHD multi-HighCode.Rus]
Формат видео: AVI
Видео: 720x432 (1.67:1), 23.976 fps, XviD build 73 ~1707 kbps avg, 0.23 bit/pixel
Аудио: 48 kHz, AC3 Dolby Digital, 2/0 (L,R) ch, ~192 kbps - двухголосый
Аудио: 48 kHz, AC3 Dolby Digital, 3/2 (L,C,R,l,r) + LFE ch, ~384 kbps - оригинал (отдельным файлом)
Формат субтитров: softsub (SRT)

MediaInfo

Общее
Полное имя : H:\A.Passage.to.India.1984.hdrip_[2.18]_[teko]\A.Passage.to.India.1984.hdrip_[2.18].avi
Формат : AVI
Формат/Информация : Audio Video Interleave
Профиль формата : OpenDML
Размер файла : 2,18 Гбайт
Продолжительность : 2 ч. 43 м.
Общий поток : 1906 Кбит/сек
Программа кодирования : VirtualDubMod 1.5.10.3 | www.virtualdub-fr.org || (build 2550/release)
Библиотека кодирования : VirtualDubMod build 2550/release
Видео
Идентификатор : 0
Формат : MPEG-4 Visual
Профиль формата : Advanced Simple@L5
Параметр BVOP формата : 2
Параметр QPel формата : Нет
Параметр GMC формата : Без точки перехода
Параметр матрицы формата : Выборочная
Идентификатор кодека : XVID
Идентификатор кодека/Подсказка : XviD
Продолжительность : 2 ч. 43 м.
Битрейт : 1702 Кбит/сек
Ширина : 720 пикселей
Высота : 432 пикселя
Соотношение сторон : 1,667
Частота кадров : 23,976 кадра/сек
Цветовое пространство : YUV
Субдискретизация насыщенности : 4:2:0
Битовая глубина : 8 бит
Тип развёртки : Прогрессивная
Метод сжатия : С потерями
Бит/(Пиксели*Кадры) : 0.228
Размер потока : 1,95 Гбайт (89%)
Библиотека кодирования : XviD 73
Аудио
Идентификатор : 1
Формат : AC-3
Формат/Информация : Audio Coding 3
Расширение режима : CM (complete main)
Параметр Endianness формата : Big
Идентификатор кодека : 2000
Продолжительность : 2 ч. 43 м.
Вид битрейта : Постоянный
Битрейт : 192 Кбит/сек
Каналы : 2 канала
Расположение каналов : Front: L R
Частота : 48,0 КГц
Битовая глубина : 16 бит
Метод сжатия : С потерями
Размер потока : 225 Мбайт (10%)
Выравнивание : Разделение по промежуткам
Продолжительность промежутка : 42 мс. (1,00 видеокадр)
Время предзагрузки промежутка : 500 мс.
Релиз группы:
--
[cybertorrent.ru].t6487.torrent 
Торрент: Зарегистрирован [ 2019-09-21 17:06 ] · 50F577F7063B8BBF039D658731C490F02572E092

Скачать .torrent

Скачать

14 KB

Статус: проверено
Скачан: 0 раз
Размер: 2,62 GB
terms.php
Показать сообщения:    

Текущее время: 15-Дек 23:41

Часовой пояс: UTC ± 0



Вы не можете начинать темы
Вы не можете отвечать на сообщения
Вы не можете редактировать свои сообщения
Вы не можете удалять свои сообщения
Вы не можете голосовать в опросах
Вы не можете прикреплять файлы к сообщениям
Вы можете скачивать файлы