Статистика раздачи
Размер:  1,46 GB   |    Зарегистрирован:  2 месяца 24 дня   |    Скачан:  0 раз

Полного источника не было: Никогда

 
     
 
 

Гость ®

Пол:
Не указан

Визит на маленькую планету / Visit to a Small Planet
Страна: США
Жанр: фантастика, комедия
Год выпуска: 1960
Продолжительность: 01:25:23
Перевод: Одноголосый закадровый
Субтитры: русские (форсированные на места без перевода), английские
Оригинальная аудиодорожка: английский
Режиссер: Норман Торог / Norman Taurog
В ролях: Джерри Льюис, Джоан Блэкман, Эрл Холлиман, Фред Кларк, Джон Уильямс, Джером Кауэн, Гэйл Гордон, Ли Патрик, Милтон Фром, Эллен Корби
Описание: Инопланетянин Кретон, не послушавшись совета своего учителя, покидает родную планету и отправляется на Землю. Он приземляется в саду дома знаменитого тележурналиста, который не верит в инопланетян и летающие тарелки. Желая изучить жизнь землян, но будучи не способным понять их образ жизни, Кретон раз за разом попадает в различные комические ситуации--Русская дорога отсюда. В неё сделано три вставки оригинальной дороги на эпизоды, которых нет на DVD. На эти моменты сделал русские субтитры.--Сэмпл
Качество видео: HDRip [Visit.to.a.Small.Planet.1960.1080p.BluRay.x264.DTS-FGT]
Формат видео: AVI
Видео: 704x384 (1.83:1), 23.976 fps, XviD build 73 ~2043 kbps avg, 0.32 bit/pixel
Аудио: 48 kHz, AC3 Dolby Digital, 2/0 (L,R) ch, ~192 kbps - одноголосый
Аудио: 48 kHz, AC3 Dolby Digital, 2/0 (L,R) ch, ~192 kbps - оригинал
Формат субтитров: softsub (SRT)

MediaInfo

Общее
Полное имя : H:\Visit.to.a.Small.Planet.1960.hdrip_[1.46]_[teko]\Visit.to.a.Small.Planet.1960.hdrip_[1.46].avi
Формат : AVI
Формат/Информация : Audio Video Interleave
Размер файла : 1,46 Гбайт
Продолжительность : 1 ч. 25 м.
Общий поток : 2442 Кбит/сек
Программа кодирования : VirtualDubMod 1.5.10.3 | www.virtualdub-fr.org || (build 2550/release)
Библиотека кодирования : VirtualDubMod build 2550/release
Видео
Идентификатор : 0
Формат : MPEG-4 Visual
Профиль формата : Advanced Simple@L5
Параметр BVOP формата : 2
Параметр QPel формата : Нет
Параметр GMC формата : Без точки перехода
Параметр матрицы формата : Выборочная
Идентификатор кодека : XVID
Идентификатор кодека/Подсказка : XviD
Продолжительность : 1 ч. 25 м.
Битрейт : 2044 Кбит/сек
Ширина : 704 пикселя
Высота : 384 пикселя
Соотношение сторон : 1,85:1
Частота кадров : 23,976 кадра/сек
Цветовое пространство : YUV
Субдискретизация насыщенности : 4:2:0
Битовая глубина : 8 бит
Тип развёртки : Прогрессивная
Метод сжатия : С потерями
Бит/(Пиксели*Кадры) : 0.315
Размер потока : 1,22 Гбайт (84%)
Библиотека кодирования : XviD 73
Аудио #1
Идентификатор : 1
Формат : AC-3
Формат/Информация : Audio Coding 3
Расширение режима : CM (complete main)
Параметр Endianness формата : Big
Идентификатор кодека : 2000
Продолжительность : 1 ч. 25 м.
Вид битрейта : Постоянный
Битрейт : 192 Кбит/сек
Каналы : 2 канала
Расположение каналов : Front: L R
Частота : 48,0 КГц
Битовая глубина : 16 бит
Метод сжатия : С потерями
Размер потока : 117 Мбайт (8%)
Выравнивание : Разделение по промежуткам
Продолжительность промежутка : 42 мс. (1,00 видеокадр)
Время предзагрузки промежутка : 500 мс.
Аудио #2
Идентификатор : 2
Формат : AC-3
Формат/Информация : Audio Coding 3
Расширение режима : CM (complete main)
Параметр Endianness формата : Big
Идентификатор кодека : 2000
Продолжительность : 1 ч. 25 м.
Вид битрейта : Постоянный
Битрейт : 192 Кбит/сек
Каналы : 2 канала
Расположение каналов : Front: L R
Частота : 48,0 КГц
Битовая глубина : 16 бит
Метод сжатия : С потерями
Размер потока : 117 Мбайт (8%)
Выравнивание : Разделение по промежуткам
Продолжительность промежутка : 42 мс. (1,00 видеокадр)
Время предзагрузки промежутка : 500 мс.
Релиз группы:
--
[cybertorrent.ru].t6488.torrent 
Торрент: Зарегистрирован [ 2019-09-21 17:06 ] · 009FCD00C62CD308F1B79288F9158456F80398ED

Скачать .torrent

Скачать

15 KB

Статус: проверено
Скачан: 0 раз
Размер: 1,46 GB
terms.php
Показать сообщения:    

Текущее время: 15-Дек 23:25

Часовой пояс: UTC ± 0



Вы не можете начинать темы
Вы не можете отвечать на сообщения
Вы не можете редактировать свои сообщения
Вы не можете удалять свои сообщения
Вы не можете голосовать в опросах
Вы не можете прикреплять файлы к сообщениям
Вы можете скачивать файлы