Статистика раздачи
Размер:  2,14 GB   |    Зарегистрирован:  2 месяца 22 дня   |    Скачан:  0 раз

Полного источника не было: Никогда

 
     
 
 

Гость ®

Пол:
Не указан

Хэллоуин 4: Возвращение Майкла Майерса / Halloween 4: The Return of Michael Myers- Страна: США
Жанр: ужасы, триллер
Год выпуска: 1988
Продолжительность: 01:28:17
Перевод: Авторский (одноголосый закадровый) В.Штейн
Перевод 2: Авторский (одноголосый закадровый) Ю.Живов
Субтитры: английские
Оригинальная аудиодорожка: английский
Режиссер: Дуайт Х. Литтл / Dwight H. Little
В ролях: Дональд Плезенс, Элли Корнелл, Даниэль Харрис, Джордж П. Вилбур, Майкл Патаки, Бо Старр, Кэтлин Кинмонт, Саша Дженсон, Джин Росс, Кармен Филпи
Описание: Черное одеяние, белая мертвенная маска, нечеловеческая сила - это Майкл Майерс! Самый неистребимый монстр всех времен и народов возвращается, совершив побег при транспортировке из одной психиатрической клиники в другую. В ночь кануна всех святых он снова объявляется в родном городе, истребляя всех на своем пути к главной жертве - маленькой племяннице Джеми...описание
Сэмпл: http://sendfile.su/1517431

Качество видео: BDRip-AVC (Хэллоуин 4: Возвращение Майкла Майерса 1988 BDRemux)
Формат видео: MKV
Видео: x264, 1020x552 (1.85:1) 23,976 fps, ~2375 kbps, 0,176 bit/pixel
Аудио 1: 48 kHz, AC3 Dolby Digital, 3/2 (L,C,R,l,r) + LFE ch, ~448 kbps | Штейн
Аудио 2: 48 kHz, AC3, 2/0 (L,R) ch, ~192 kbps avg | Живов
Аудио 3: 48 kHz, AC3 Dolby Digital, 3/2 (L,C,R,l,r) + LFE ch, ~448 kbps | Английский
Формат субтитров: softsub (SRT)

MediaInfo

General
Unique ID : 137739774794422806272212230761854821706 (0x679FB736DE46BD0C6D6A06E81EC4654A)
Format : Matroska
Format version : Version 4 / Version 2
File size : 2.14 GiB
Duration : 1h 28mn
Overall bit rate : 3 465 Kbps
Encoded date : UTC 2019-09-21 06:59:51
Writing application : mkvmerge v37.0.0 ('Leave It') 64-bit
Writing library : libebml v1.3.9 + libmatroska v1.5.2
Video #1
ID : 1
Format : AVC
Format/Info : Advanced Video Codec
Format profile : High@L4.1
Format settings, CABAC : Yes
Format settings, ReFrames : 11 frames
Codec ID : V_MPEG4/ISO/AVC
Duration : 1h 28mn
Bit rate : 2 375 Kbps
Width : 1 020 pixels
Height : 552 pixels
Display aspect ratio : 1.85:1
Frame rate mode : Constant
Frame rate : 23.976 (24000/1001) fps
Color space : YUV
Chroma subsampling : 4:2:0
Bit depth : 8 bits
Scan type : Progressive
Bits/(Pixel*Frame) : 0.176
Stream size : 1.46 GiB (69%)
Writing library : x264 core 157 r2969 d4099dd
Encoding settings : cabac=1 / ref=11 / deblock=1:-3:-2 / analyse=0x3:0x133 / me=umh / subme=10 / psy=1 / psy_rd=1.00:0.00 / mixed_ref=1 / me_range=32 / chroma_me=1 / trellis=2 / 8x8dct=1 / cqm=0 / deadzone=21,11 / fast_pskip=0 / chroma_qp_offset=-2 / threads=6 / lookahead_threads=1 / sliced_threads=0 / nr=0 / decimate=1 / interlaced=0 / bluray_compat=0 / constrained_intra=0 / bframes=13 / b_pyramid=2 / b_adapt=2 / b_bias=0 / direct=1 / weightb=1 / open_gop=0 / weightp=2 / keyint=250 / keyint_min=23 / scenecut=40 / intra_refresh=0 / rc=crf / mbtree=0 / crf=20.2 / qcomp=0.65 / qpmin=0 / qpmax=69 / qpstep=4 / ip_ratio=1.40 / pb_ratio=1.30 / aq=3:0.90
Language : English
Default : Yes
Forced : No
Audio #2
ID : 2
Format : AC-3
Format/Info : Audio Coding 3
Mode extension : CM (complete main)
Format settings, Endianness : Big
Codec ID : A_AC3
Duration : 1h 28mn
Bit rate mode : Constant
Bit rate : 448 Kbps
Channel(s) : 6 channels
Channel positions : Front: L C R, Side: L R, LFE
Sampling rate : 48.0 KHz
Frame rate : 31.250 fps (1536 spf)
Compression mode : Lossy
Stream size : 283 MiB (13%)
Title : Владимир Штейн
Language : Russian
Default : Yes
Forced : No
Audio #3
ID : 3
Format : AC-3
Format/Info : Audio Coding 3
Mode extension : CM (complete main)
Format settings, Endianness : Big
Codec ID : A_AC3
Duration : 1h 28mn
Bit rate mode : Constant
Bit rate : 192 Kbps
Channel(s) : 2 channels
Channel positions : Front: L R
Sampling rate : 48.0 KHz
Frame rate : 31.250 fps (1536 spf)
Compression mode : Lossy
Stream size : 121 MiB (6%)
Title : Живов
Language : Russian
Default : No
Forced : No
Audio #4
ID : 4
Format : AC-3
Format/Info : Audio Coding 3
Mode extension : CM (complete main)
Format settings, Endianness : Big
Codec ID : A_AC3
Duration : 1h 28mn
Bit rate mode : Constant
Bit rate : 448 Kbps
Channel(s) : 6 channels
Channel positions : Front: L C R, Side: L R, LFE
Sampling rate : 48.0 KHz
Frame rate : 31.250 fps (1536 spf)
Compression mode : Lossy
Stream size : 283 MiB (13%)
Language : English
Default : No
Forced : No
Text #5
ID : 5
Format : UTF-8
Codec ID : S_TEXT/UTF8
Codec ID/Info : UTF-8 Plain Text
Duration : 1h 24mn
Bit rate : 49 bps
Count of elements : 947
Stream size : 30.9 KiB (0%)
Title : SRT
Language : English
Default : No
Forced : No

лог

raw [info]: 1020x552p 1:1 @ 24000/1001 fps (cfr)
x264 [info]: using SAR=1/1
x264 [info]: using cpu capabilities: MMX2 SSE2Fast SSSE3 SSE4.2 AVX XOP FMA3 BMI1
x264 [info]: profile Progressive High, level 4.1, 4:2:0, 8-bit
x264 [info]: frame I:811 Avg QP:17.88 size: 59921
x264 [info]: frame P:23133 Avg QP:19.53 size: 26799
x264 [info]: frame B:103063 Avg QP:22.14 size: 8771
x264 [info]: consecutive B-frames: 1.1% 0.9% 3.2% 11.8% 18.9% 38.9% 9.6% 7.0% 3.1% 1.3% 1.1% 1.6% 1.0% 0.5%
x264 [info]: mb I I16..4: 4.1% 85.0% 10.9%
x264 [info]: mb P I16..4: 0.4% 8.7% 0.9% P16..4: 42.1% 26.8% 19.2% 0.2% 0.0% skip: 1.8%
x264 [info]: mb B I16..4: 0.0% 0.4% 0.1% B16..8: 47.6% 12.6% 3.3% direct: 4.7% skip:31.3% L0:47.7% L1:46.9% BI: 5.4%
x264 [info]: 8x8 transform intra:86.1% inter:67.3%
x264 [info]: coded y,uvDC,uvAC intra: 94.0% 87.1% 65.3% inter: 27.6% 22.4% 2.8%
x264 [info]: i16 v,h,dc,p: 31% 30% 12% 28%
x264 [info]: i8 v,h,dc,ddl,ddr,vr,hd,vl,hu: 9% 7% 5% 11% 16% 15% 14% 12% 12%
x264 [info]: i4 v,h,dc,ddl,ddr,vr,hd,vl,hu: 11% 8% 2% 10% 17% 16% 14% 12% 11%
x264 [info]: i8c dc,h,v,p: 42% 22% 18% 18%
x264 [info]: Weighted P-Frames: Y:17.2% UV:11.8%
x264 [info]: ref P L0: 39.5% 8.9% 18.2% 8.0% 6.7% 4.9% 4.5% 2.5% 2.4% 2.0% 2.0% 0.3% 0.0%
x264 [info]: ref B L0: 63.1% 13.8% 8.1% 4.3% 3.2% 2.7% 2.2% 1.4% 0.8% 0.4%
x264 [info]: ref B L1: 91.8% 8.2%
x264 [info]: kb/s:2374.83
x264 [total]: encoded 127007 frames, 5.39 fps, 2374.83 kb/s

Скриншоты


[cybertorrent.ru].t6489.torrent 
Торрент: Зарегистрирован [ 2019-09-21 17:06 ] · B4C75AAD9D8B932A12BCC705445491673FB582D7

Скачать .torrent

Скачать

11 KB

Статус: проверено
Скачан: 0 раз
Размер: 2,14 GB
terms.php
Показать сообщения:    

Текущее время: 14-Дек 07:18

Часовой пояс: UTC ± 0



Вы не можете начинать темы
Вы не можете отвечать на сообщения
Вы не можете редактировать свои сообщения
Вы не можете удалять свои сообщения
Вы не можете голосовать в опросах
Вы не можете прикреплять файлы к сообщениям
Вы можете скачивать файлы