Статистика раздачи
Размер:  1,46 GB   |    Зарегистрирован:  2 месяца 24 дня   |    Скачан:  0 раз

Полного источника не было: Никогда

 
     
 
 

Гость ®

Пол:
Не указан

Пионерка Мэри Пикфорд
Жанр: Комедия, драма
Год выпуска: 1995
Продолжительность: 01:29:41
Режиссёр: Владимир Левин
В ролях: Ольга Евтушенко, Иван Рыжов, Ксения Севастьянова, Мария Виноградова, Константин Чепурин, Марк Рудинштейн, Елена Григолавичуте, Алексей Булдаков, Алексей Зуев, Геннадий Матвеев, Надежда Матушкина, Роман Хеидзе, Алеша Богданов, Татьяна Аугшкап, Вера Воронкова, Андрей Зайков, Михаил Калинкин, Сергей Серов, Иван Власов (I), Борис Коростелёв
Описание: Действие происходит в СССР 20-х гг. Советская пионерка Шура Климова мечтает стать такой же знаменитой кинозвездой, как любимица Америки и пионерка Голливуда Мэри Пикфорд. Пионерская организация Шуры осуждает ее поведение, товарищи дружно прорабатывают пионерку Климову за индивидуализм, но ничто не может разубедить девочку и отнять у нее мечту. В финале картины мы видим, как сказочный поезд-мечта уносит нашу героиню в далекий город «учиться на кинозвезду»...
Фильм был запущен в 1977-ом на Одесской киностудии, но остановлен Госкино СССР и закончен только в 1995 г.
Доп. информация: Выпущено: Россия, Украина, Одесская киностудия, Киностудия "Пальма"
Сэмпл: https://yadi.sk/i/KB-Gpt5q0_lAzA
Качество видео: WEBRip
Формат видео: AVI
Видео: Xvid 720x528 30fps 2133kbps
Аудио: Dolby AC3 48000Hz stereo 192kbps

MediaInfo

General
Complete name : C:\Users\morozoff\Desktop\Пионерка Мэри Пикфорд.avi
Format : AVI
Format/Info : Audio Video Interleave
File size : 1.46 GiB
Duration : 1 h 29 min
Overall bit rate : 2 337 kb/s
Writing application : VirtualDubMod 1.5.10.3 | www.virtualdub-fr.org || (build 2550/release)
Writing library : VirtualDubMod build 2550/release
Video
ID : 0
Format : MPEG-4 Visual
Format profile : Advanced Simple@L5
Format settings : BVOP1
Format settings, BVOP : 1
Format settings, QPel : No
Format settings, GMC : No warppoints
Format settings, Matrix : Default (MPEG)
Codec ID : XVID
Codec ID/Hint : XviD
Duration : 1 h 29 min
Bit rate : 2 133 kb/s
Width : 720 pixels
Height : 528 pixels
Display aspect ratio : 4:3
Frame rate : 30.000 FPS
Color space : YUV
Chroma subsampling : 4:2:0
Bit depth : 8 bits
Scan type : Progressive
Compression mode : Lossy
Bits/(Pixel*Frame) : 0.187
Stream size : 1.34 GiB (91%)
Writing library : XviD 1.2.1 (UTC 2008-12-04)
Audio
ID : 1
Format : AC-3
Format/Info : Audio Coding 3
Commercial name : Dolby Digital
Codec ID : 2000
Duration : 1 h 29 min
Bit rate mode : Constant
Bit rate : 192 kb/s
Channel(s) : 2 channels
Channel layout : L R
Sampling rate : 48.0 kHz
Frame rate : 31.250 FPS (1536 SPF)
Bit depth : 16 bits
Compression mode : Lossy
Stream size : 123 MiB (8%)
Alignment : Split across interleaves
Interleave, duration : 33 ms (1.00 video frame)
Interleave, preload duration : 500 ms
Service kind : Complete Main

Скриншот c названием фильма

Скриншоты

[cybertorrent.ru].t6491.torrent 
Торрент: Зарегистрирован [ 2019-09-21 17:06 ] · F872E9297175B6D99437C6C73716921257F47449

Скачать .torrent

Скачать

15 KB

Статус: проверено
Скачан: 0 раз
Размер: 1,46 GB
terms.php
Показать сообщения:    

Текущее время: 15-Дек 23:03

Часовой пояс: UTC ± 0



Вы не можете начинать темы
Вы не можете отвечать на сообщения
Вы не можете редактировать свои сообщения
Вы не можете удалять свои сообщения
Вы не можете голосовать в опросах
Вы не можете прикреплять файлы к сообщениям
Вы можете скачивать файлы