Статистика раздачи
Размер:  2,94 GB   |    Зарегистрирован:  2 месяца 22 дня   |    Скачан:  0 раз

Полного источника не было: Никогда

 
     
 
 

Гость ®

Пол:
Не указан

Волк с Уолл-стрит / The Wolf of Wall Street
Страна: США
Жанр: драма, комедия, криминал, биография
Год выпуска: 2013
Продолжительность: 02:59:52
Перевод: Авторский (одноголосый закадровый) Д.Пучков aka Goblin / Гоблин
Субтитры: нет
Оригинальная аудиодорожка: нет
Режиссер: Мартин Скорсезе / Martin Scorsese
В ролях: Леонардо ДиКаприо, Джона Хилл, Марго Робби, Мэттью МакКонахи, Кайл Чандлер, Роб Райнер, Джон Фавро, Жан Дюжарден, Ши Уигхэм, Спайк Джонз, Джон Бернтал, Джоанна Ламли, Кристин Милиоти, Кристин Эберсоул, Катарина Кэс, П.Дж. Бирн, Кеннет Чои
Описание: Джордан Белфорт основал одну из крупнейших брокерских контор в 1987 году, но десять лет спустя был осужден за отмывание денег и ряд прочих финансовых преступлений. Он справился с алкогольной и наркотической зависимостью, выработанной за время махинаций на Уолл-стрит, написал две книги и теперь читает лекции о том, как достичь успеха.
Доп. информация: Исходник звуковой дорожки предоставлен пользователем Spineless.
В фильме присутствует ненормативная лексика
Сэмпл: http://multi-up.com/1241740
Качество: BDRip [The.Wolf.Of.Wal.Street.2013.BluRay.Remux.1080p.Rus.Eng.Subs-playBD]
Формат: AVI
Видео: XviD / 2136 kbps / 720x304 / 23.976 fps
Аудио: AVO Пучков aka Goblin (Rus) / AC3 / 2 ch / 192 kbps / 48 kHz
Субтитры: отсутствуют

MediaInfo

General
Complete name : I:\rutracker\Волк с Уолл-Стрит (2013) BDRip.avi
Format : AVI
Format/Info : Audio Video Interleave
Format profile : OpenDML
File size : 2.94 GiB
Duration : 2 h 59 min
Overall bit rate : 2 337 kb/s
Writing application : VirtualDubMod 1.5.10.3 | www.virtualdub-fr.org || (build 2550/release)
Writing library : VirtualDubMod build 2550/release
Video
ID : 0
Format : MPEG-4 Visual
Format profile : Advanced Simple@L5
Format settings : BVOP2
Format settings, BVOP : 2
Format settings, QPel : No
Format settings, GMC : No warppoints
Format settings, Matrix : Default (H.263)
Muxing mode : Packed bitstream
Codec ID : XVID
Codec ID/Hint : XviD
Duration : 2 h 59 min
Bit rate : 2 136 kb/s
Width : 720 pixels
Height : 304 pixels
Display aspect ratio : 2.35:1
Frame rate : 23.976 (24000/1001) FPS
Color space : YUV
Chroma subsampling : 4:2:0
Bit depth : 8 bits
Scan type : Progressive
Compression mode : Lossy
Bits/(Pixel*Frame) : 0.407
Stream size : 2.68 GiB (91%)
Writing library : XviD 1.2.1 (UTC 2008-12-04)
Audio
ID : 1
Format : AC-3
Format/Info : Audio Coding 3
Commercial name : Dolby Digital
Codec ID : 2000
Duration : 2 h 59 min
Bit rate mode : Constant
Bit rate : 192 kb/s
Channel(s) : 2 channels
Channel layout : L R
Sampling rate : 48.0 kHz
Frame rate : 31.250 FPS (1536 SPF)
Bit depth : 16 bits
Compression mode : Lossy
Stream size : 246 MiB (8%)
Alignment : Split accross interleaves
Interleave, duration : 42 ms (1.00 video frame)
Interleave, preload duratio : 500 ms
Service kind : Complete Main

Скриншот c названием фильма

Скриншоты

[cybertorrent.ru].t6494.torrent 
Торрент: Зарегистрирован [ 2019-09-21 17:06 ] · 714F71EC9A24FA2426A06C05221E860E206AFB08

Скачать .torrent

Скачать

15 KB

Статус: проверено
Скачан: 0 раз
Размер: 2,94 GB
terms.php
Показать сообщения:    

Текущее время: 14-Дек 08:49

Часовой пояс: UTC ± 0



Вы не можете начинать темы
Вы не можете отвечать на сообщения
Вы не можете редактировать свои сообщения
Вы не можете удалять свои сообщения
Вы не можете голосовать в опросах
Вы не можете прикреплять файлы к сообщениям
Вы можете скачивать файлы