Статистика раздачи
Размер:  1,79 GB   |    Зарегистрирован:  2 месяца 23 дня   |    Скачан:  0 раз

Полного источника не было: Никогда

 
     
 
 

Гость ®

Пол:
Не указан

Дом на камне
Жанр: драма
Год выпуска: 1994
Продолжительность: 02:09:43
Режиссёр: Александр Хряков
В ролях: Юозас Будрайтис, Ирина Купченко, Иван Лапиков, Борис Романов (I), Светлана Светличная, Евгений Редько, Ариадна Шенгелая, Татьяна Ташкова, Анна Дубровская, Валерий Баринов
Описание: Фильм снят по мотивам рассказа Рэя Брэдбери «Отпрыск Макгиллахи», герой которого — ирландский писатель Смит — спустя 15 лет возвращается в Дублин, где в 1953 году работал над пьесой. Загадочная история с возвращением ведёт читателя в сферу мистического, Смиту кажется, что он встречает тени собственного прошлого. В фильме сюжет рассказа перенесен в наши дни. Русский писатель (его играет Юозас Будрайтис), покинувший отечество пятнадцать лет назад, приезжает со своей женой на три дня в Москву.
Доп. информация: Выпущено: Россия, Valir-Film
Сэмпл: https://yadi.sk/i/4irz7OALTEaa1Q
Качество видео: VHSRip
Формат видео: AVI
Видео: Xvid 720x528 25fps 1775kbps
Аудио: Dolby AC3 48000Hz stereo 192kbps

MediaInfo

General
Complete name : C:\Users\morozoff\Desktop\Дом на камне.avi
Format : AVI
Format/Info : Audio Video Interleave
File size : 1.79 GiB
Duration : 2 h 9 min
Overall bit rate : 1 973 kb/s
Writing application : MEncoder SVN-r22963
Writing library : MPlayer
Video
ID : 0
Format : MPEG-4 Visual
Format profile : Simple@L1
Format settings, BVOP : No
Format settings, QPel : No
Format settings, GMC : No warppoints
Format settings, Matrix : Default (H.263)
Codec ID : XVID
Codec ID/Hint : XviD
Duration : 2 h 9 min
Bit rate : 1 775 kb/s
Width : 720 pixels
Height : 528 pixels
Display aspect ratio : 4:3
Frame rate : 25.000 FPS
Color space : YUV
Chroma subsampling : 4:2:0
Bit depth : 8 bits
Scan type : Progressive
Compression mode : Lossy
Bits/(Pixel*Frame) : 0.187
Stream size : 1.61 GiB (90%)
Writing library : Lavc51.40.2
Audio
ID : 1
Format : AC-3
Format/Info : Audio Coding 3
Commercial name : Dolby Digital
Codec ID : 2000
Duration : 2 h 9 min
Bit rate mode : Constant
Bit rate : 192 kb/s
Channel(s) : 2 channels
Channel layout : L R
Sampling rate : 48.0 kHz
Frame rate : 31.250 FPS (1536 SPF)
Bit depth : 16 bits
Compression mode : Lossy
Delay relative to video : 8 ms
Stream size : 178 MiB (10%)
Alignment : Split across interleaves
Interleave, duration : 500 ms (12.50 video frames)
Interleave, preload duration : 1000 ms
Service kind : Complete Main

Скриншот c названием фильма

Скриншоты

[cybertorrent.ru].t6514.torrent 
Торрент: Зарегистрирован [ 2019-09-22 15:33 ] · 35DCB628D021DF289DF11C4488705049DCA33ED4

Скачать .torrent

Скачать

18 KB

Статус: проверено
Скачан: 0 раз
Размер: 1,79 GB
terms.php
Показать сообщения:    

Текущее время: 15-Дек 23:03

Часовой пояс: UTC ± 0



Вы не можете начинать темы
Вы не можете отвечать на сообщения
Вы не можете редактировать свои сообщения
Вы не можете удалять свои сообщения
Вы не можете голосовать в опросах
Вы не можете прикреплять файлы к сообщениям
Вы можете скачивать файлы