Статистика раздачи
Размер:  2,18 GB   |    Зарегистрирован:  2 месяца 23 дня   |    Скачан:  0 раз

Полного источника не было: Никогда

 
     
 
 

Гость ®

Пол:
Не указан

В августе 44-го- Жанр: военная драма, шпионский боевик
Год выпуска: 2001
Продолжительность: 01:43:01-Режиссёр: Михаил Пташук-В ролях: Евгений Миронов, Владислав Галкин, Юрий Колокольников, Алексей Петренко, Беата Тышкевич, Александр Феклистов, Александр Балуев, Рамаз Чхиквадзе, Ярослав Бойко, Анджей Печински, Каролина Грушка, Виктор Павлов, Альберт Филозов, Александр Лабуш, Алексей Панин, Константин Соловьёв, Юрий Цурило, Иван Лешук, Сергей Кравец, Радослав Пазура, Александр Ефимов, Юрий Пристром, Татьяна Говорова
Описание: По роману Владимира Богомолова "Момент истины" о работе советской контраззведки. События происходят в августе 1944 года. Белоруссия уже освобождена, однако с ее территории регулярно выходит в эфир группа агентов противника, передавая врагам важную информацию о советских войсках. На поиски шпионов в район запеленгованной рации послан отряд фронтовой контрразведки СМЕРШ.-Сэмпл | Кинопоиск-Качество видео: HDTVRip-AVC
Формат видео: MKV
Видео: x264 (High@L4.1); 1152x646, Display aspect ratio 16:9, 25.000 fps, 2835 Kbps
Аудио: AC-3; 16 bits 48 Khz; 2.0ch 192 Kbps; CBR | DVD5 "Дивайс"
george$t писал(а):
Выражаю признательность Bartimeyse за любезно предоставленный материал.

Исходник / сравнение

Исходником послужили две записи (утро / вечер) белорусского телевещания.

вечер

General
Unique ID : 233817241964427368306084539754038854626 (0xAFE790126FFA84B6BDBE8758DF6A83E2)
Complete name : J:\03.07. В августе 44-го. Вечер (замеченнные рассыпания на 31.55, 42.29).mkv
Format : Matroska
Format version : Version 2
File size : 5.06 GiB
Duration : 1 h 50 min
Overall bit rate : 6 589 kb/s
Encoded date : UTC 2019-09-13 16:50:16
Writing application : mkvmerge v7.8.0 ('River Man') 32bit built on Mar 27 2015 16:18:02
Writing library : libebml v1.3.1 + libmatroska v1.4.2
Video
ID : 1
Format : AVC
Format/Info : Advanced Video Codec
Format profile : Main@L4.1
Format settings : CABAC / 2 Ref Frames
Format settings, CABAC : Yes
Format settings, ReFrames : 2 frames
Codec ID : V_MPEG4/ISO/AVC
Duration : 1 h 50 min
Bit rate mode : Constant
Nominal bit rate : 6 499 kb/s
Width : 1 920 pixels
Height : 1 080 pixels
Display aspect ratio : 16:9
Frame rate mode : Constant
Frame rate : 25.000 FPS
Color space : YUV
Chroma subsampling : 4:2:0
Bit depth : 8 bits
Scan type : Progressive
Bits/(Pixel*Frame) : 0.125
Language : Russian
Default : Yes
Forced : No
Audio
ID : 2
Format : AAC
Format/Info : Advanced Audio Codec
Format profile : LC
Codec ID : A_AAC-2
Duration : 1 h 50 min
Channel(s) : 2 channels
Channel positions : Front: L R
Sampling rate : 44.1 kHz
Frame rate : 43.066 FPS (1024 SPF)
Compression mode : Lossy
Delay relative to video : 7 ms
Language : Russian
Default : Yes
Forced : No
Из посторонних надписей в рипе только логотип, анимированный в начале и конце фильма. Звук взят с регионального издания "Дивайс"
Сравнение с двд
https://cybertorrent.ru/viewtopic.php?t=980982



MediaInfo

x264 log

avs [info]: 1152x646p 1:1 @ 25/1 fps (cfr)
avs [info]: color matrix: bt709
x264 [info]: using SAR=1/1
x264 [info]: using cpu capabilities: MMX2 SSE2Fast SSSE3 SSE4.2
x264 [info]: profile High, level 4.1, 4:2:0, 8-bit
x264 [info]: frame I:1014 Avg QP:18.29 size: 68384
x264 [info]: frame P:39728 Avg QP:21.53 size: 29230
x264 [info]: frame B:113801 Avg QP:23.11 size: 8436
x264 [info]: consecutive B-frames: 4.6% 5.1% 11.5% 22.3% 15.6% 36.4% 3.8% 0.5% 0.3%
x264 [info]: mb I I16..4: 3.7% 83.5% 12.9%
x264 [info]: mb P I16..4: 0.8% 10.0% 1.6% P16..4: 48.8% 24.5% 13.1% 0.3% 0.0% skip: 0.8%
x264 [info]: mb B I16..4: 0.0% 0.7% 0.2% B16..8: 43.4% 11.0% 2.6% direct: 5.8% skip:36.3% L0:42.3% L1:46.6% BI:11.2%
x264 [info]: 8x8 transform intra:80.5% inter:72.5%
x264 [info]: direct mvs spatial:99.4% temporal:0.6%
x264 [info]: coded y,uvDC,uvAC intra: 88.2% 81.5% 37.3% inter: 28.6% 24.5% 6.5%
x264 [info]: i16 v,h,dc,p: 9% 13% 5% 74%
x264 [info]: i8 v,h,dc,ddl,ddr,vr,hd,vl,hu: 14% 8% 2% 9% 15% 14% 14% 12% 12%
x264 [info]: i4 v,h,dc,ddl,ddr,vr,hd,vl,hu: 12% 6% 1% 9% 16% 17% 15% 12% 12%
x264 [info]: i8c dc,h,v,p: 36% 25% 20% 19%
x264 [info]: Weighted P-Frames: Y:1.3% UV:0.2%
x264 [info]: ref P L0: 51.7% 14.0% 14.6% 4.2% 4.0% 2.7% 2.8% 1.5% 1.6% 1.3% 1.5% 0.1% 0.0%
x264 [info]: ref B L0: 87.4% 6.7% 2.2% 1.1% 0.8% 0.6% 0.5% 0.4% 0.3% 0.2%
x264 [info]: ref B L1: 97.9% 2.1%
x264 [info]: kb/s:2835.00
-General
Unique ID : 253732963045849083024641115115812606401 (0xBEE330EE9AA82DDC9B4DD12A6A64D1C1)
Complete name : В августе 44-го.2001.HDTVRip.mkv
Format : Matroska
Format version : Version 2
File size : 2.18 GiB
Duration : 1 h 43 min
Overall bit rate : 3 029 kb/s
Encoded date : UTC 2019-09-20 13:31:25
Writing application : mkvmerge v7.8.0 ('River Man') 32bit built on Mar 27 2015 16:18:02
Writing library : libebml v1.3.1 + libmatroska v1.4.2
Video
ID : 1
Format : AVC
Format/Info : Advanced Video Codec
Format profile : High@L4.1
Format settings : CABAC / 11 Ref Frames
Format settings, CABAC : Yes
Format settings, ReFrames : 11 frames
Codec ID : V_MPEG4/ISO/AVC
Duration : 1 h 43 min
Bit rate : 2 835 kb/s
Width : 1 152 pixels
Height : 646 pixels
Display aspect ratio : 16:9
Frame rate mode : Constant
Frame rate : 25.000 FPS
Color space : YUV
Chroma subsampling : 4:2:0
Bit depth : 8 bits
Scan type : Progressive
Bits/(Pixel*Frame) : 0.152
Stream size : 2.00 GiB (92%)
Title : В августе 44-го.2001
Writing library : x264 core 157 r2867+103 0d6443f t_mod_Custom_2 [8-bit@all X86]
Encoding settings : cabac=1 / ref=11 / deblock=1:-2:-2 / analyse=0x3:0x133 / me=umh / subme=10 / psy=1 / fade_compensate=0.00 / psy_rd=1.01:0.00 / mixed_ref=1 / me_range=32 / chroma_me=1 / trellis=2 / 8x8dct=1 / cqm=0 / deadzone=21,11 / fast_pskip=0 / chroma_qp_offset=-2 / threads=12 / lookahead_threads=2 / sliced_threads=0 / nr=0 / decimate=0 / interlaced=0 / bluray_compat=0 / constrained_intra=0 / fgo=0 / bframes=8 / b_pyramid=2 / b_adapt=2 / b_bias=0 / direct=3 / weightb=1 / open_gop=0 / weightp=2 / keyint=250 / keyint_min=25 / scenecut=40 / intra_refresh=0 / rc_lookahead=60 / rc=2pass / mbtree=0 / bitrate=2835 / ratetol=1.0 / qcomp=0.60 / qpmin=0:0:0 / qpmax=69:69:69 / qpstep=4 / cplxblur=20.0 / qblur=0.5 / vbv_maxrate=62500 / vbv_bufsize=78125 / nal_hrd=none / filler=0 / ip_ratio=1.30 / pb_ratio=1.30 / aq=3:0.70 / aq-sensitivity=10.00 / aq-factor=1.00:1.00:1.00 / aq2=0 / aq3=0
Language : Russian
Default : Yes
Forced : No
Color range : Limited
Color primaries : BT.709
Transfer characteristics : BT.709
Matrix coefficients : BT.709
Audio
ID : 2
Format : AC-3
Format/Info : Audio Coding 3
Codec ID : A_AC3
Duration : 1 h 43 min
Bit rate mode : Constant
Bit rate : 192 kb/s
Channel(s) : 2 channels
Channel positions : Front: L R
Sampling rate : 48.0 kHz
Frame rate : 31.250 FPS (1536 SPF)
Bit depth : 16 bits
Compression mode : Lossy
Stream size : 141 MiB (6%)
Title : AC-3; 16 bits 48 Khz; 2.0ch 192 Kbps; CBR | DVD5
Language : Russian
Service kind : Complete Main
Default : Yes
Forced : No

Скриншоты

[cybertorrent.ru].t6516.torrent 
Торрент: Зарегистрирован [ 2019-09-22 15:33 ] · E0C6427EDD64B4214F0FC477FA8DD80F377AE403

Скачать .torrent

Скачать

11 KB

Статус: проверено
Скачан: 0 раз
Размер: 2,18 GB
terms.php
Показать сообщения:    

Текущее время: 16-Дек 00:49

Часовой пояс: UTC ± 0



Вы не можете начинать темы
Вы не можете отвечать на сообщения
Вы не можете редактировать свои сообщения
Вы не можете удалять свои сообщения
Вы не можете голосовать в опросах
Вы не можете прикреплять файлы к сообщениям
Вы можете скачивать файлы