Статистика раздачи
Размер:  1,25 GB   |    Зарегистрирован:  2 месяца 23 дня   |    Скачан:  0 раз

Полного источника не было: Никогда

 
     
 
 

Гость ®

Пол:
Не указан

Человек в черном плаще / O homem da capa preta
Страна: Бразилия
Жанр: исторический, политический, биография
Год выпуска: 1986
Продолжительность: 01:57:03
Перевод: Субтитры
Субтитры: русские - enoeno
Оригинальная аудиодорожка: португальский
Режиссер: Сержиу Резенде / Sérgio Rezende
В ролях: Жозе Вилкер, Мариета Северо, Жонас Блок, Изольда Креста, Мариана Де Мораес, Журандир де Оливейра, Джексон Де Соуза, Лиджия Диниз, Чико Диаc, Альваро Фрайр
Описание: Бразилия 1940-х - 1960-х годов. Федеральный депутат Тенориу Кавальканти с автоматом в руках бросил вызов коррупции и влиятельным лицам, которые доминировали в муниципалитете Дуки ди Кашиас.
Доп. информация: Рип и субтитры из сети. Перевод - enoeno
Сэмпл: http://sendfile.su/1517528
Качество видео: DVDRip
Формат видео: AVI
Видео: MPEG-4 Visual at 1 325 Kbps, 624 x 384 (1.625) at 23.976 fps
Аудио: AC-3 at 192 Kbps, 2 channels, 48.0 KHz
Формат субтитров: softsub (SRT)

Образец субтитров

18
00:02:44,111 --> 00:02:47,376
Это - мачо!
19
00:02:57,291 --> 00:02:59,782
Пока я живу...
20
00:02:59,993 --> 00:03:02,894
никто не причинит никакого
вреда моему сыну,
21
00:03:03,097 --> 00:03:05,657
ни одна пуля не убьет его...
22
00:03:06,200 --> 00:03:08,930
и при этом никакой дурной глаз
не свернет его с пути.
23
00:03:09,536 --> 00:03:12,801
Никто не причинит никакого
вреда тебе, Наталисиу.
24
00:03:39,399 --> 00:03:42,095
Наталисиу, жди меня.
25
00:04:06,660 --> 00:04:08,651
Слушай, сынок.
26
00:04:09,863 --> 00:04:13,299
Сын Тенориу должен играть
на аккордеоне как его отец.
27
00:04:13,500 --> 00:04:16,697
- Но ты не учишь меня.
- Тогда начну.
28
00:04:16,904 --> 00:04:20,431
- Какую песню ты хочешь, чтобы я сыграл?
- Ту, которую ты любишь.
29
00:04:20,641 --> 00:04:22,836
Так, смотри.
30
00:04:28,682 --> 00:04:31,150
Слушай, Мария.
31
00:04:41,094 --> 00:04:43,119
Антониу Тенориу!
32
00:04:44,331 --> 00:04:46,561
Это тебе урок, чтобы
не приставал к другим бабам!
33
00:04:47,201 --> 00:04:48,862
Сучий сын!
34
00:05:18,065 --> 00:05:20,932
Ты сын Антониу Тенориу?
35
00:05:27,207 --> 00:05:30,233
Ты быстро вырос, Наталисиу.
36
00:05:35,148 --> 00:05:37,241
Ты знаешь, кто я?
37
00:05:38,552 --> 00:05:41,077
Я тот человек, который убил твоего отца.
38
00:05:42,289 --> 00:05:44,519
Кто убивает гремучую змею...
39
00:05:46,293 --> 00:05:48,454
тот убьет и выводок.
40
00:05:54,067 --> 00:05:56,501
Кровь призывает к крови.

MediaInfo

General
Complete name : I:\O_Homem_Da_Capa_Preta.1986.avi\O_Homem_Da_Capa_Preta.1986.avi
Format : AVI
Format/Info : Audio Video Interleave
File size : 1.25 GiB
Duration : 1h 57mn
Overall bit rate : 1 523 Kbps
Writing application : VirtualDubMod 1.5.4.1 (build 2178/release)
Writing library : VirtualDubMod build 2178/release
Video
ID : 0
Format : MPEG-4 Visual
Format profile : Advanced Simple@L5
Format settings, BVOP : 1
Format settings, QPel : No
Format settings, GMC : No warppoints
Format settings, Matrix : Custom
Codec ID : XVID
Codec ID/Hint : XviD
Duration : 1h 57mn
Bit rate : 1 325 Kbps
Width : 624 pixels
Height : 384 pixels
Display aspect ratio : 1.625
Frame rate : 23.976 fps
Color space : YUV
Chroma subsampling : 4:2:0
Bit depth : 8 bits
Scan type : Progressive
Compression mode : Lossy
Bits/(Pixel*Frame) : 0.231
Stream size : 1.08 GiB (87%)
Writing library : XviD 1.2.0SMP (UTC 2006-01-08)
Audio
ID : 1
Format : AC-3
Format/Info : Audio Coding 3
Mode extension : CM (complete main)
Format settings, Endianness : Big
Codec ID : 2000
Duration : 1h 57mn
Bit rate mode : Constant
Bit rate : 192 Kbps
Channel(s) : 2 channels
Channel positions : Front: L R
Sampling rate : 48.0 KHz
Bit depth : 16 bits
Compression mode : Lossy
Stream size : 161 MiB (13%)
Alignment : Split accross interleaves
Interleave, duration : 96 ms (2.30 video frames)
Interleave, preload duration : 96 ms

Скриншот c названием фильма

Скриншоты

Мои раздачи

Мои раздачи
[cybertorrent.ru].t6518.torrent 
Торрент: Зарегистрирован [ 2019-09-22 15:33 ] · 9D7BAFD5DE474D59F1173286FD67FA7281DAF26B

Скачать .torrent

Скачать

13 KB

Статус: проверено
Скачан: 0 раз
Размер: 1,25 GB
terms.php
Показать сообщения:    

Текущее время: 16-Дек 00:17

Часовой пояс: UTC ± 0



Вы не можете начинать темы
Вы не можете отвечать на сообщения
Вы не можете редактировать свои сообщения
Вы не можете удалять свои сообщения
Вы не можете голосовать в опросах
Вы не можете прикреплять файлы к сообщениям
Вы можете скачивать файлы