Статистика раздачи
Размер:  2,98 GB   |    Зарегистрирован:  2 месяца 21 день   |    Скачан:  0 раз

Полного источника не было: Никогда

 
     
 
 

Гость ®

Пол:
Не указан

Зардоз / Zardoz / 4:3 Pan & Scan!
Страна: Ирландия, США
Жанр: фантастика
Год выпуска: 1974
Продолжительность: 01:41:40
Перевод: Профессиональный (двухголосый закадровый) Лазер Видео
Субтитры: нет
Оригинальная аудиодорожка: нет
Режиссер: Джон Бурмен / John Boorman
В ролях: Шон Коннери, Шарлотта Рэмплинг, Сара Кестелмен, Джон Элдертон, Сэлли Энн Ньютон, Ниалл Багги, Боско Хоган, Джессика Свифт, Бербра Даулинг, Кристофер Кэссон, Реджинальд Джармен, Джон Бурмен (в титрах не указан)...
Описание: К 2293 году человечество разделилось на две обособленные группировки. Элита живет в роскоши, комфорте и спокойствии под неусыпной охраной высокотехнологичных средств подавления внешней агрессии. Оставшаяся часть населения планеты прозябает в нищете и поклоняется злобному языческому божеству Зардозу.
У бедняков есть свои лидеры, обладающие более совершенным оружием, при помощи которого они осуществляют контроль над основной частью народных масс. Один из таких лидеров решает покончить с несправедливостью, уничтожив оборонительные укрепления элиты и захватив ее территорию.
Доп. информация: Оцифровка лицензионной VHS из собственной коллекции.
4:3 Pan & Scan!
Данный перевод впервые в Рунете!

Сэмпл: http://sendfile.su/1517611
Качество видео: VHSRip-AVC
Формат видео: MP4
Видео: AVC, 720х576, 5:4, 50,000 кадров/сек, 4000 Кбит/сек
Аудио: AAC, 64,0 КГц, 192 Кбит/сек, 2.0

MediaInfo

Общее
Полное имя : G:\torrents\Zardoz\Zardoz.mp4
Формат : MPEG-4
Профиль формата : Base Media
Идентификатор кодека : isom (isom/iso2/avc1/mp41)
Размер файла : 2,98 Гбайт
Продолжительность : 1 ч. 41 м.
Общий поток : 4197 Кбит/сек
Программа кодирования : Lavf57.56.101
Видео
Идентификатор : 1
Формат : AVC
Формат/Информация : Advanced Video Codec
Профиль формата : Baseline@L3
Настройки формата : 1 Ref Frames
Параметр CABAC формата : Нет
Параметр RefFrames формата : 1 кадр
Параметр GOP формата : M=1, N=100
Идентификатор кодека : avc1
Идентификатор кодека/Информация : Advanced Video Coding
Продолжительность : 1 ч. 41 м.
Битрейт : 4000 Кбит/сек
Ширина : 720 пикселей
Высота : 576 пикселей
Соотношение сторон : 5:4
Режим частоты кадров : Постоянный
Частота кадров : 50,000 кадров/сек
Цветовое пространство : YUV
Субдискретизация насыщенности : 4:2:0
Битовая глубина : 8 бит
Тип развёртки : Прогрессивная
Бит/(Пиксели*Кадры) : 0.193
Размер потока : 2,84 Гбайт (95%)
Аудио
Идентификатор : 2
Формат : AAC
Формат/Информация : Advanced Audio Codec
Профиль формата : LTP
Идентификатор кодека : mp4a-40-4
Продолжительность : 1 ч. 41 м.
Вид битрейта : Постоянный
Битрейт : 192 Кбит/сек
Каналы : 2 канала
Channel(s)_Original : 3 канала
Расположение каналов : Front: L C R
Частота : 64,0 КГц
Частота кадров : 62,500 кадра/сек (1024 SPF)
Метод сжатия : С потерями
Размер потока : 138 Мбайт (5%)
Default : Да
AlternateGroup/String : 1

Скриншот c названием фильма

[cybertorrent.ru].t6519.torrent 
Торрент: Зарегистрирован [ 2019-09-22 15:33 ] · BA91F99640BF38E9BEFE58C7B3D52DA880C07922

Скачать .torrent

Скачать

15 KB

Статус: проверено
Скачан: 0 раз
Размер: 2,98 GB
terms.php
Показать сообщения:    

Текущее время: 14-Дек 08:16

Часовой пояс: UTC ± 0



Вы не можете начинать темы
Вы не можете отвечать на сообщения
Вы не можете редактировать свои сообщения
Вы не можете удалять свои сообщения
Вы не можете голосовать в опросах
Вы не можете прикреплять файлы к сообщениям
Вы можете скачивать файлы