Статистика раздачи
Размер:  18,78 GB   |    Зарегистрирован:  2 месяца 23 дня   |    Скачан:  0 раз
Сидов:  128  [  0 KB/s  ]   Личеров:  90  [  0 KB/s  ]  
 
     
 
 

Гость ®

Пол:
Не указан

Психологини
Год выпуска: 2019
Производство: Art Pictures Vision, Black Box Production
Жанр: комедия, драма
Продолжительность: ~00:24:00 серия
Субтитры: нет
Режиссёр: Роман Фокин
В ролях: Анастасия Панина, Анна Старшенбаум, Софья Каштанова, Роман Маякин, Егор Корешков, Дмитрий Ендальцев, Юлия Подозёрова, Александр Константинов, Марта Тимофеева, Ольга Хохлова, Арсений Перель, Виталия Корниенко, Валентин Валл, Олег Граф, Станислав Гунько, Павел Морозов, Дмитрий Мазуров, Софья Ардова, Валерий Новиков, Алёна Спивак

Описание: Что такое «когнитивная беспомощность», «синдром самозванца» и «демон ревности» выпускницы психфака Вика, Таня и Алина знают не понаслышке. Правда, встретившись спустя десять лет, девушки понимают, что Фрейд и другие корифеи психологии не спасают личную жизнь. Алина заводит мимолетные романы, Вика стала тираном в собственной семье, а Таня обзавелась багажом комплексов. Подруги сблизились снова, чтобы помогать друг другу профессиональным советом, когда диагноз нужно поставить не пациенту, а самой себе.

Реклама: Нет.
Кинопоиск
Все раздачи сериала
Sample
Качество: WEBRip 1080p - Files-x
Формат: MKV
Видео кодек: H.264
Аудио кодек: AC3
Видео: MPEG4 AVC Video, H264, 16:9, 1920x1080, 25 fps, ~5000 kbps, 0.096 bit/pixel
Аудио: AC3 Dolby Digital, 44.1 kHz, 2/0 (L,R) ch, 192 kbps

MI

General
Unique ID : 214186113486359162608268640475087523395 (0xA122BEB5EE0EDFC59F313EE29FA24E43)
Complete name : D:\Психологини.2019.WEB-DL 1080p. Files-x\01. Психологини.2019.WEB-DL 1080p. Files-x.mkv
Format : Matroska
Format version : Version 2
File size : 889 MiB
Duration : 23 min 27 s
Overall bit rate : 5 300 kb/s
Encoded date : UTC 2019-08-19 09:22:58
Writing application : mkvmerge v7.8.0 ('River Man') 32bit built on Apr 3 2015 12:11:22
Writing library : libebml v1.3.1 + libmatroska v1.4.2
Video
ID : 1
Format : AVC
Format/Info : Advanced Video Codec
Format profile : High@L4.1
Format settings : CABAC / 5 Ref Frames
Format settings, CABAC : Yes
Format settings, ReFrames : 5 frames
Codec ID : V_MPEG4/ISO/AVC
Duration : 23 min 27 s
Bit rate : 5 000 kb/s
Width : 1 920 pixels
Height : 1 080 pixels
Display aspect ratio : 16:9
Frame rate mode : Constant
Frame rate : 25.000 FPS
Color space : YUV
Chroma subsampling : 4:2:0
Bit depth : 8 bits
Scan type : Progressive
Bits/(Pixel*Frame) : 0.096
Stream size : 839 MiB (94%)
Writing library : x264 core 148
Encoding settings : cabac=1 / ref=5 / deblock=1:0:0 / analyse=0x3:0x113 / me=hex / subme=8 / psy=1 / psy_rd=1.00:0.00 / mixed_ref=1 / me_range=16 / chroma_me=1 / trellis=2 / 8x8dct=1 / cqm=0 / deadzone=21,11 / fast_pskip=1 / chroma_qp_offset=-2 / threads=34 / lookahead_threads=5 / sliced_threads=0 / nr=0 / decimate=1 / interlaced=0 / bluray_compat=0 / constrained_intra=0 / bframes=3 / b_pyramid=2 / b_adapt=1 / b_bias=0 / direct=3 / weightb=1 / open_gop=0 / weightp=2 / keyint=250 / keyint_min=25 / scenecut=0 / intra_refresh=0 / rc_lookahead=50 / rc=abr / mbtree=1 / bitrate=5000 / ratetol=1.0 / qcomp=0.60 / qpmin=0 / qpmax=69 / qpstep=4 / ip_ratio=1.40 / aq=1:1.00
Default : Yes
Forced : No
Audio
ID : 2
Format : AC-3
Format/Info : Audio Coding 3
Codec ID : A_AC3
Duration : 23 min 27 s
Bit rate mode : Constant
Bit rate : 192 kb/s
Channel(s) : 2 channels
Channel positions : Front: L R
Sampling rate : 44.1 kHz
Frame rate : 28.711 FPS (1536 SPF)
Bit depth : 16 bits
Compression mode : Lossy
Delay relative to video : -80 ms
Stream size : 32.2 MiB (4%)
Service kind : Complete Main
Default : Yes
Forced : No

Скриншоты


[cybertorrent.ru].t6522.torrent 
Торрент: Зарегистрирован [ 2019-09-22 15:33 ] · E44F7CD8ED84902CEE567C593EBD20CB5D6061AB

Скачать .torrent

Скачать

96 KB

Статус: проверено
Скачан: 0 раз
Размер: 18,78 GB
terms.php
Показать сообщения:    

Текущее время: 15-Дек 23:25

Часовой пояс: UTC ± 0



Вы не можете начинать темы
Вы не можете отвечать на сообщения
Вы не можете редактировать свои сообщения
Вы не можете удалять свои сообщения
Вы не можете голосовать в опросах
Вы не можете прикреплять файлы к сообщениям
Вы можете скачивать файлы