Статистика раздачи
Размер:  5,3 GB   |    Зарегистрирован:  2 месяца 16 дней   |    Скачан:  0 раз
Сидов:  24  [  0 KB/s  ]   Личеров:  4  [  0 KB/s  ]  
 
     
 
 

Гость ®

Пол:
Не указан

Чистая психология
Год выпуска: 2019
Производство: Кинокомпания «Русское»
Жанр: драма
Продолжительность: ~00:45:00 серия
Субтитры: нет
Режиссёр: Сергей Лялин
В ролях: Светлана Смирнова-Марцинкевич, Александр Никитин, Дмитрий Пчела, Роман Полянский, Александра Белоглазова, Евгений Егоров, Яна Крайнова, Анастасия Дубровина, Владимир Ляхов, Серафима Смолина, Альберт Бартош

Описание: Елена – опытный психолог. Женщина умело выстраивает отношения и уверена, что они с гражданским мужем Виктором - идеальная пара: любят одни и те же блюда, ненавидят футбол и оба мечтают о детях. Когда Виктор решился начать собственное дело, но прогорел, Елена не осталась в стороне. Теперь ему предстоит выплатить кредитору Андрею немыслимую сумму. Долг так велик, что молодая пара рискует не только потерять бизнес, но и остаться на улице. Чтобы помочь любимому, Лена решает сама поговорить с кредитором. Поначалу разговор не ладится, но когда женщина в гневе указывает Андрею на его психологические проблемы и комплексы, он поражается ее таланту и предлагает сделку. Она должна прийти в его дом под маской горничной, чтобы вычислить, кто из окружения бизнесмена желает ему смерти. Елена планирует поскорее разобраться в этом вопросе, но расследование приводит ее к шокирующим результатам.

Реклама: Нет.
Кинопоиск
Все раздачи сериала
Sample
Качество: HDTVRip 720p - ExKinoRay
Формат: MKV
Видео кодек: H.264
Аудио кодек: AC3
Видео: MPEG4 AVC Video, H264, 16:9, 1280x720, 25 fps, ~4000 kbps, 0.174 bit/pixel
Аудио: AC3 Dolby Digital, 48 kHz, 2/0 (L,R) ch, 192 kbps

MI

General
Unique ID : 204948091710282696451647906203569675081 (0x9A2F911265F5BBF2AE19FE7319B6DB49)
Complete name : D:\Chistaya.psihologiya.2019.HDTVRip.(720p).ExKinoRay\Chistaya.psihologiya.(01.seriya.iz.02).2019.HDTVRip.(720p).ExKinoRay.mkv
Format : Matroska
Format version : Version 4 / Version 2
File size : 2.65 GiB
Duration : 1 h 30 min
Overall bit rate : 4 194 kb/s
Encoded date : UTC 2019-09-21 21:37:42
Writing application : mkvmerge v6.9.1 ('Blue Panther') 64bit built on Apr 18 2014 18:23:38
Writing library : libebml v1.3.0 + libmatroska v1.4.1
Video
ID : 1
Format : AVC
Format/Info : Advanced Video Codec
Format profile : High@L4.1
Format settings : CABAC / 9 Ref Frames
Format settings, CABAC : Yes
Format settings, ReFrames : 9 frames
Codec ID : V_MPEG4/ISO/AVC
Duration : 1 h 30 min
Bit rate : 4 000 kb/s
Width : 1 280 pixels
Height : 720 pixels
Display aspect ratio : 16:9
Frame rate mode : Constant
Frame rate : 25.000 FPS
Color space : YUV
Chroma subsampling : 4:2:0
Bit depth : 8 bits
Scan type : Progressive
Bits/(Pixel*Frame) : 0.174
Stream size : 2.47 GiB (93%)
Writing library : x264 core 146 r2538 121396c
Encoding settings : cabac=1 / ref=9 / deblock=1:-3:-3 / analyse=0x3:0x113 / me=umh / subme=11 / psy=1 / psy_rd=1.00:0.20 / mixed_ref=1 / me_range=32 / chroma_me=1 / trellis=2 / 8x8dct=1 / cqm=0 / deadzone=21,11 / fast_pskip=1 / chroma_qp_offset=-3 / threads=24 / lookahead_threads=10 / sliced_threads=0 / nr=0 / decimate=0 / interlaced=0 / bluray_compat=0 / constrained_intra=0 / bframes=11 / b_pyramid=2 / b_adapt=2 / b_bias=0 / direct=3 / weightb=1 / open_gop=0 / weightp=2 / keyint=250 / keyint_min=25 / scenecut=40 / intra_refresh=0 / rc_lookahead=60 / rc=2pass / mbtree=1 / bitrate=4000 / ratetol=1.0 / qcomp=0.60 / qpmin=0 / qpmax=69 / qpstep=4 / cplxblur=20.0 / qblur=0.5 / vbv_maxrate=14000 / vbv_bufsize=14000 / nal_hrd=none / filler=0 / ip_ratio=1.40 / aq=3:1.40
Default : No
Forced : No
Color range : Limited
Color primaries : BT.709
Transfer characteristics : BT.709
Matrix coefficients : BT.709
Audio
ID : 2
Format : AC-3
Format/Info : Audio Coding 3
Codec ID : A_AC3
Duration : 1 h 30 min
Bit rate mode : Constant
Bit rate : 192 kb/s
Channel(s) : 2 channels
Channel positions : Front: L R
Sampling rate : 48.0 kHz
Frame rate : 31.250 FPS (1536 SPF)
Bit depth : 16 bits
Compression mode : Lossy
Stream size : 124 MiB (5%)
Service kind : Complete Main
Default : No
Forced : No

Скриншоты


[cybertorrent.ru].t6523.torrent 
Торрент: Зарегистрирован [ 2019-09-22 15:33 ] · 62E67D910145548AD40FCF67CD38B30C684B49E1

Скачать .torrent

Скачать

27 KB

Статус: проверено
Скачан: 0 раз
Размер: 5,3 GB
terms.php
Показать сообщения:    

Текущее время: 09-Дек 15:10

Часовой пояс: UTC ± 0



Вы не можете начинать темы
Вы не можете отвечать на сообщения
Вы не можете редактировать свои сообщения
Вы не можете удалять свои сообщения
Вы не можете голосовать в опросах
Вы не можете прикреплять файлы к сообщениям
Вы можете скачивать файлы