Статистика раздачи
Размер:  1,46 GB   |    Зарегистрирован:  2 месяца 19 дней   |    Скачан:  0 раз

Полного источника не было: Никогда

 
     
 
 

Гость ®

Пол:
Не указан

Золушка / Popelka
Страна: Чехословакия
Жанр: фэнтези, сказка, экранизация
Год выпуска: 1969
Продолжительность: 01:36:25
Перевод: Одноголосый закадровый - RedDiamond Studio
Субтитры: нет
Оригинальная аудиодорожка: нет
Режиссер: Власта Янечкова / Vlasta Janecková
В ролях: Эва Грушкова, Иржи Стедрон, Ян Триска, Дана Медржицка, Илья Прахарж, Дана Главачова, Ружена Мерункова, Ладислав Пешек, Сватоплук Бенеш, Антонин Навратил
Описание: Экранизация сказки чешской писательницы Божены Немцовой (чешская адаптация каноничной "Золушки" Шарля Перро).
Счастливое детство закончилось вместе со смертью матери. Теперь Золушка всего лишь прислуга в доме своей злобной мачехи и постоянный объект для насмешек ее глупых дочерей. Лишь волшебство способно избавить ее от непосильного труда и унижений. Роскошное платье, сияющая карета и хрустальные туфельки - мечта любой девушки! И вот уже Принц очарован прекрасной незнакомкой...
Доп. информация:

Релиз

Видео взято из раздачи: https://cybertorrent.ru/viewtopic.php?t=5260703
Озвучено студией RedDiamond (Матвей Кенс)
--Сэмпл: http://sendfile.su/1517653
Качество видео: DVDRip
Формат видео: AVI
Видео: XviD, 704x528 (1.33:1), 25.000 fps, 1965 kbps
Аудио: AC3, 48.0 KHz, 2 ch., 192 Kbps (русский одноголосый закадровый перевод) - RedDiamond Studio

MediaInfo

Общее
Полное имя : Z:\РАЗДАЧИ\Золушка.avi
Формат : AVI
Формат/Информация : Audio Video Interleave
Размер файла : 1,46 Гбайт
Продолжительность : 1 ч. 36 м.
Общий поток : 2166 Кбит/сек
Программа кодирования : VirtualDubMod 1.5.10.3 | www.virtualdub-fr.org || (build 2550/release)
Библиотека кодирования : VirtualDubMod build 2550/release
Видео
Идентификатор : 0
Формат : MPEG-4 Visual
Профиль формата : Advanced Simple@L5
Параметр BVOP формата : 1
Параметр QPel формата : Нет
Параметр GMC формата : Без точки перехода
Параметр матрицы формата : Выборочная
Идентификатор кодека : XVID
Идентификатор кодека/Подсказка : XviD
Продолжительность : 1 ч. 36 м.
Битрейт : 1965 Кбит/сек
Ширина : 704 пикселя
Высота : 528 пикселей
Соотношение сторон : 4:3
Частота кадров : 25,000 кадров/сек
Цветовое пространство : YUV
Субдискретизация насыщенности : 4:2:0
Битовая глубина : 8 бит
Тип развёртки : Прогрессивная
Метод сжатия : С потерями
Бит/(Пиксели*Кадры) : 0.211
Размер потока : 1,32 Гбайт (91%)
Библиотека кодирования : XviD 73
Аудио
Идентификатор : 1
Формат : AC-3
Формат/Информация : Audio Coding 3
Параметр Endianness формата : Big
Идентификатор кодека : 2000
Продолжительность : 1 ч. 36 м.
Вид битрейта : Постоянный
Битрейт : 192 Кбит/сек
Каналы : 2 канала
Расположение каналов : Front: L R
Частота : 48,0 КГц
Частота кадров : 31,250 кадров/сек (1536 spf)
Битовая глубина : 16 бит
Метод сжатия : С потерями
Размер потока : 132 Мбайт (9%)
Выравнивание : Разделение по промежуткам
Продолжительность промежутка : 40 мс. (1,00 видеокадр)
Время предзагрузки промежутка : 500 мс.
ServiceKind/String : Complete Main
[cybertorrent.ru].t6524.torrent 
Торрент: Зарегистрирован [ 2019-09-22 15:33 ] · 622C451F94EE2F30EA605CB06555D0942053160A

Скачать .torrent

Скачать

15 KB

Статус: проверено
Скачан: 0 раз
Размер: 1,46 GB
terms.php
Показать сообщения:    

Текущее время: 11-Дек 21:34

Часовой пояс: UTC ± 0



Вы не можете начинать темы
Вы не можете отвечать на сообщения
Вы не можете редактировать свои сообщения
Вы не можете удалять свои сообщения
Вы не можете голосовать в опросах
Вы не можете прикреплять файлы к сообщениям
Вы можете скачивать файлы