Статистика раздачи
Размер:  6,39 GB   |    Зарегистрирован:  2 месяца 15 дней   |    Скачан:  0 раз
Сидов:  35  [  0 KB/s  ]   Личеров:  18  [  0 KB/s  ]  
 
     
 
 

Гость ®

Пол:
Не указан

Шторм
Год выпуска: 2019
Производство: Start Studio, Марс Медиа
Жанр: драма, детектив
Продолжительность: ~00:50:00 серия
Субтитры: нет
Режиссёр: Борис Хлебников
В ролях: Александр Робак, Максим Лагашкин, Анна Михалкова, Анна Котова, Геннадий Смирнов, Михаил Брашинский, Илья Борисов, Дмитрий Лысенков, Александр Мосин, Дарья Жовнер, Сергей Уманов, Валерий Дьяченко, Мария Антонова, Егор Пчёлкин
Описание: В центре сюжета — двое друзей, Юрий Осокин и Сергей Градов. Первый работает в убойном отделе полиции, второй — в отделе по борьбе с коррупцией. Чтобы спасти жену от смертельной болезни и найти деньги на дорогостоящую операцию, Градов идет на должностные преступления и пытается скрыть улики. Изворотливый ум и талант выстраивать сложные многоходовые схемы делают его практически неуловимым. Расследующий череду преступлений Осокин начинает догадываться, что к делу причастен Градов, хотя достаточных доказательств у него пока нет. Для Юрия становится делом чести изобличить своего друга.

Реклама: Нет.
Версия 18+
Кинопоиск
Все раздачи сериала
Sample
Качество: WEBRip 720p - ExKinoRay
Формат: MKV
Видео кодек: H.264
Аудио кодек: AC3
Видео: MPEG4 AVC Video, H264, 16:9, 1280x720, 23.976 fps, ~4000 kbps, 0.181 bit/pixel
Аудио: AC3 Dolby Digital, 48.0 kHz, 2/0 (L,R) ch, 192 kbps

Внимание! Раздача ведётся путём добавления новых серий

Раздача ведётся путём добавления новых серий, при каждом добавлении создаётся новый торрент. Чтобы начать докачку новой серии, пользователям необходимо сделать следующее:
- Остановить скачивание.
- Удалить старый торрент у себя из клиента (старые серии удалять не надо).
- Скачать новый торрент и запустить его у себя в клиенте вместо старого, при этом указать клиенту путь в старую папку куда и должно происходить скачивание новых серий.
Ваш клиент при этом должен произвести хеширование (проверку) старой папки (если не производит сам - помогите ему сделать это), и будет докачивать только те серии которых у вас ещё нет. Старые серии при этом не удаляются, а продолжают раздаваться!
Если вы уже удалили старые серии, то предотвратить повторную закачку старых серий можно, отжав галочку в соответствующих местах при запуске нового торрента. По возможности, желательно не удалять старые серии как можно дольше, чтобы релизер не столько продолжал раздавать старые серии, а смог сконцентрироваться на новых.

MI

General
Unique ID : 236259638831810218862660072125871321534 (0xB1BDF388E595DC52A07190C525AA71BE)
Complete name : J:\Shtorm.2019.WEB-DLRip.(720p).ExKinoRay\Shtorm.(02.seriya.iz.08).2019.WEB-DLRip.(720p).ExKinoRay.mkv
Format : Matroska
Format version : Version 4 / Version 2
File size : 1.46 GiB
Duration : 49 min 47 s
Overall bit rate : 4 189 kb/s
Encoded date : UTC 2019-09-05 09:22:54
Writing application : mkvmerge v6.9.1 ('Blue Panther') 64bit built on Apr 18 2014 18:23:38
Writing library : libebml v1.3.0 + libmatroska v1.4.1
Video
ID : 1
Format : AVC
Format/Info : Advanced Video Codec
Format profile : High@L4.1
Format settings : CABAC / 9 Ref Frames
Format settings, CABAC : Yes
Format settings, ReFrames : 9 frames
Codec ID : V_MPEG4/ISO/AVC
Duration : 49 min 47 s
Bit rate : 4 000 kb/s
Width : 1 280 pixels
Height : 720 pixels
Display aspect ratio : 16:9
Frame rate mode : Constant
Frame rate : 23.976 (24000/1001) FPS
Color space : YUV
Chroma subsampling : 4:2:0
Bit depth : 8 bits
Scan type : Progressive
Bits/(Pixel*Frame) : 0.181
Stream size : 1.36 GiB (93%)
Writing library : x264 core 146 r2538 121396c
Encoding settings : cabac=1 / ref=9 / deblock=1:-3:-3 / analyse=0x3:0x113 / me=umh / subme=11 / psy=1 / psy_rd=1.00:0.20 / mixed_ref=1 / me_range=32 / chroma_me=1 / trellis=2 / 8x8dct=1 / cqm=0 / deadzone=21,11 / fast_pskip=1 / chroma_qp_offset=-3 / threads=24 / lookahead_threads=10 / sliced_threads=0 / nr=0 / decimate=0 / interlaced=0 / bluray_compat=0 / constrained_intra=0 / bframes=11 / b_pyramid=2 / b_adapt=2 / b_bias=0 / direct=3 / weightb=1 / open_gop=0 / weightp=2 / keyint=250 / keyint_min=23 / scenecut=40 / intra_refresh=0 / rc_lookahead=60 / rc=2pass / mbtree=1 / bitrate=4000 / ratetol=1.0 / qcomp=0.60 / qpmin=0 / qpmax=69 / qpstep=4 / cplxblur=20.0 / qblur=0.5 / vbv_maxrate=14000 / vbv_bufsize=14000 / nal_hrd=none / filler=0 / ip_ratio=1.40 / aq=3:1.40
Default : No
Forced : No
Color range : Limited
Color primaries : BT.709
Transfer characteristics : BT.709
Matrix coefficients : BT.709
Audio
ID : 2
Format : AC-3
Format/Info : Audio Coding 3
Codec ID : A_AC3
Duration : 49 min 47 s
Bit rate mode : Constant
Bit rate : 192 kb/s
Channel(s) : 2 channels
Channel positions : Front: L R
Sampling rate : 48.0 kHz
Frame rate : 31.250 FPS (1536 SPF)
Bit depth : 16 bits
Compression mode : Lossy
Stream size : 68.4 MiB (5%)
Language : Russian
Service kind : Complete Main
Default : Yes
Forced : Yes

Скриншоты


[cybertorrent.ru].t6542.torrent 
Торрент: Зарегистрирован [ 2019-09-23 19:06 ] · 05B0DA4597498994187CE722463711E8263D51B8

Скачать .torrent

Скачать

33 KB

Статус: проверено
Скачан: 0 раз
Размер: 6,39 GB
terms.php
Показать сообщения:    

Текущее время: 09-Дек 15:42

Часовой пояс: UTC ± 0



Вы не можете начинать темы
Вы не можете отвечать на сообщения
Вы не можете редактировать свои сообщения
Вы не можете удалять свои сообщения
Вы не можете голосовать в опросах
Вы не можете прикреплять файлы к сообщениям
Вы можете скачивать файлы