Статистика раздачи
Размер:  1,06 GB   |    Зарегистрирован:  2 месяца 22 дня   |    Скачан:  0 раз

Полного источника не было: Никогда

 
     
 
 

Гость ®

Пол:
Не указан

Месть шута
Жанр: музыкальный, экранизация
Год выпуска: 1993
Продолжительность: 01:12:07
Режиссёр: Борис Бланк
В ролях: В ролях: Борис Моисеев, Кахи Кавсадзе, Вячеслав Разбегаев, Екатерина Голубева-Польди, Александр Домогаров ст., Ольга Копосова, Николай Добрынин, Александр Зуев, Евгений Платохин, Александр Чутко, Виталий Варганов, Екатерина Галахова, Влада Садовская, Владислав Гандрабура (II), Марина Опенкина, Дмитрий Лавров (I), Ирина Отиева
Описание: Мюзикл по мотивам пьесы Виктора Гюго "Король забавляется" и оперы Джузеппе Верди "Риголетто".
Доп. информация: Лютая, но крайне редкая дичь с участием молоденького Бореньки Моисеева. Как на участие в этом трэше подписался Домогаров, можно только гадать.
Сэмпл: https://yadi.sk/i/CTpFm2nQQ2mbXg
Качество видео: VHSRip
Формат видео: AVI
Видео: XviD, 1953 Кбит/с, 25fps, 640x480
Аудио: MP3, 2 ch, 128 Кбит/с

MediaInfo

General
Complete name : C:\Users\morozoff\Desktop\Месть_шута.avi
Format : AVI
Format/Info : Audio Video Interleave
Format profile : OpenDML
File size : 1.06 GiB
Duration : 1 h 12 min
Overall bit rate : 2 097 kb/s
Writing application : Lavf56.15.102
Video
ID : 0
Format : xvid
Codec ID : xvid
Duration : 1 h 12 min
Bit rate : 1 953 kb/s
Width : 640 pixels
Height : 480 pixels
Display aspect ratio : 4:3
Frame rate : 25.000 FPS
Scan type : Progressive
Bits/(Pixel*Frame) : 0.254
Stream size : 1 008 MiB (93%)
Audio
ID : 1
Format : MPEG Audio
Format version : Version 1
Format profile : Layer 3
Format settings : Joint stereo / MS Stereo
Codec ID : 55
Codec ID/Hint : MP3
Duration : 1 h 12 min
Bit rate mode : Constant
Bit rate : 128 kb/s
Channel(s) : 2 channels
Sampling rate : 44.1 kHz
Compression mode : Lossy
Stream size : 66.0 MiB (6%)
Alignment : Aligned on interleaves
Interleave, duration : 26 ms (0.65 video frame)
Writing library : LAME3.98.4

Скриншот c названием фильма

Скриншоты

[cybertorrent.ru].t6543.torrent 
Торрент: Зарегистрирован [ 2019-09-23 19:06 ] · 829077326E87C9F0A1D0577AE7FF31815FA024D9

Скачать .torrent

Скачать

11 KB

Статус: проверено
Скачан: 0 раз
Размер: 1,06 GB
terms.php
Показать сообщения:    

Текущее время: 15-Дек 23:19

Часовой пояс: UTC ± 0



Вы не можете начинать темы
Вы не можете отвечать на сообщения
Вы не можете редактировать свои сообщения
Вы не можете удалять свои сообщения
Вы не можете голосовать в опросах
Вы не можете прикреплять файлы к сообщениям
Вы можете скачивать файлы