Статистика раздачи
Размер:  8,83 GB   |    Зарегистрирован:  2 месяца 18 дней   |    Скачан:  0 раз
Сидов:  23  [  0 KB/s  ]   Личеров:  8  [  0 KB/s  ]  
 
     
 
 

Гость ®

Пол:
Не указан

Я ему верю! / Инспектор по надзору
Год выпуска: 2012
Производство: "Форвард-Фильм", "Навигатор", "ГРАФФИТИ ФИЛЬМ Продакшн"
Жанр: детектив, криминальный фильм
Продолжительность: 16 x ~ 00:45:00
Субтитры: Нет
Режиссёр: Павел Мальков, Надежда Якушева
В ролях: Мария Жиганова, Андрей Аверков, Татьяна Пилецкая, Владимир Селезнёв (II), Илья Шидловский, Максим Меркулов (II), Александр Саюталин, Валерий Малюшин, Наталия Тарыничева, Надежда Страшко, Григорий Чабан, Ирина Коваленко, Валерия Варченко, Юлия Нижельская, Андрей Перович, Дмитрий Воробьёв (II), Екатерина Унтилова, Вадим Смирнов (II), Виктор Лабынцев, Дмитрий Блажко, Сергей Агеенков, Сергей Мардарь, Татьяна Бондаренко (II), Александр Дергапутский, Олег Дроздов, Диана Дезмари, Сергей Заморев, Валентин Кузнецов (II), Дмитрий Парфёнов (II), Елизавета Прилепская, Антон Чернов, Михаил Сидаш, Вадим Гусев (II), Виктор Бабич, Антон Пулит, Юлия Грачева, Дмитрий Ягнов, Павел Мальков, Геннадий Алимпиев, Александр Марушев, Антон Багров, Дмитрий Кочкин, Татьяна Малягина, Андрей Исаев, Виктор Петухов, Константин Фисенко, Эдуард Прокин, Михаил Лучко, Пётр Шерус, Константин Фадеев, Арсений Куцаков, Николай Левин, Ирина Колганова, Пётр Артамонов, Михаил Теплицкий, Дмитрий Карпов, Вадим Лымарь, Сергей Кудрявцев, Александр Дюрис, Галина Сумина, Станислав Осколков, Николай Смирнов (III), Янис Сафонов, Абдурахман Рамазанов, Виталина Тищенко, Вадим Алфёров, Андрей Благословенский, Татьяна Шепилова, Станислав Севостьянихин, Анастасия Шелкова
Описание: Капитан милиции Женя Тарасова не мыслила свою жизнь без оперативной работы. Но после тяжёлого ранения Женю комиссовали. И предложили другую работу, кабинетную – инспектором по надзору за теми, кто только что освободился из мест заключения. Женя возмущалась всей душой – она с тоски погибнет на работе с бумажками! Однако, оказалось, что за бумажками стоят живые люди, каждый – со своей судьбой, характером и проблемами. Каждая серия – это история помощи бывшему заключённому, попавшему в беду в силу стечения обстоятельств. На фоне этих историй развивается основной лирический сюжет – история непростых взаимоотношений Жени с начальником угрозыска Петром Крыловым. Но наша героиня, преодолев все невзгоды и удары судьбы, обретёт своё счастье в гармоничной семье. Женя - цельная, отважная, волевая натура, но при этом всегда обаятельная и женственная.
Реклама: Нет
Сэмпл: http://multi-up.com/1241483
Качество: WEBRip-AVC
Формат: MKV
Видео кодек: H.264
Аудио кодек: AC3
Видео: MPEG-4 (AVC), 720x428@762x428, 25 fps, ~ 1600 kbps, ~ 0.21 bit/pixel
Аудио: AC3, 48.0 kHz, 2 ch, 192 Kbps

MI

General
Unique ID : 234579871160143874066550672834298511971 (0xB07A7098290A1ED7A13924ED58DA0263)
Complete name : Я ему верю (01 сер.).mkv
Format : Matroska
Format version : Version 2
File size : 566 MiB
Duration : 44 min 5 s
Overall bit rate : 1 794 kb/s
Encoded date : UTC 2019-09-16 19:43:28
Writing application : mkvmerge v7.8.0 ('River Man') 32bit built on Apr 3 2015 12:11:22
Writing library : libebml v1.3.1 + libmatroska v1.4.2
Video
ID : 1
Format : AVC
Format/Info : Advanced Video Codec
Format profile : High@L3
Format settings : CABAC / 6 Ref Frames
Format settings, CABAC : Yes
Format settings, Reference : 6 frames
Codec ID : V_MPEG4/ISO/AVC
Duration : 44 min 5 s
Bit rate : 1 600 kb/s
Width : 720 pixels
Height : 428 pixels
Display aspect ratio : 16:9
Frame rate mode : Constant
Frame rate : 25.000 FPS
Color space : YUV
Chroma subsampling : 4:2:0
Bit depth : 8 bits
Scan type : Progressive
Bits/(Pixel*Frame) : 0.208
Stream size : 494 MiB (87%)
Writing library : x264 core 157 r2935 545de2f
Encoding settings : cabac=1 / ref=6 / deblock=1:0:0 / analyse=0x3:0x113 / me=umh / subme=8 / psy=1 / psy_rd=1.00:0.00 / mixed_ref=1 / me_range=24 / chroma_me=1 / trellis=1 / 8x8dct=1 / cqm=0 / deadzone=21,11 / fast_pskip=1 / chroma_qp_offset=-2 / threads=4 / lookahead_threads=1 / sliced_threads=0 / nr=0 / decimate=1 / interlaced=0 / bluray_compat=0 / stitchable=1 / constrained_intra=0 / bframes=6 / b_pyramid=2 / b_adapt=1 / b_bias=0 / direct=3 / weightb=1 / open_gop=0 / weightp=2 / keyint=250 / keyint_min=25 / scenecut=40 / intra_refresh=0 / rc_lookahead=40 / rc=2pass / mbtree=1 / bitrate=1600 / ratetol=1.0 / qcomp=0.60 / qpmin=0 / qpmax=69 / qpstep=4 / cplxblur=20.0 / qblur=0.5 / ip_ratio=1.40 / aq=1:1.00
Default : Yes
Forced : No
Audio
ID : 2
Format : AC-3
Format/Info : Audio Coding 3
Commercial name : Dolby Digital
Codec ID : A_AC3
Duration : 44 min 5 s
Bit rate mode : Constant
Bit rate : 192 kb/s
Channel(s) : 2 channels
Channel layout : L R
Sampling rate : 48.0 kHz
Frame rate : 31.250 FPS (1536 SPF)
Bit depth : 16 bits
Compression mode : Lossy
Stream size : 60.6 MiB (11%)
Service kind : Complete Main
Default : Yes
Forced : No

Скриншоты

Предыдущие и альтернативные раздачи
[cybertorrent.ru].t6544.torrent 
Торрент: Зарегистрирован [ 2019-09-23 19:06 ] · 4167337E608CBDED6444EF15A704B072E60276FB

Скачать .torrent

Скачать

24 KB

Статус: проверено
Скачан: 0 раз
Размер: 8,83 GB
terms.php
Показать сообщения:    

Текущее время: 11-Дек 21:36

Часовой пояс: UTC ± 0



Вы не можете начинать темы
Вы не можете отвечать на сообщения
Вы не можете редактировать свои сообщения
Вы не можете удалять свои сообщения
Вы не можете голосовать в опросах
Вы не можете прикреплять файлы к сообщениям
Вы можете скачивать файлы