Статистика раздачи
Размер:  745 MB   |    Зарегистрирован:  2 месяца 20 дней   |    Скачан:  0 раз

Полного источника не было: Никогда

 
     
 
 

Гость ®

Пол:
Не указан

-Чернобыль: Зона отчуждения. Финал-«Твой лучший друг... до самой смерти»- -Год выпуска: 2019
Производство: PREMIER Studios, Look Film
Жанр: триллер, фантастика
Продолжительность: 01:41:44
Субтитры: нет-Режиссёр: Дмитрий Киселёв-В ролях: Константин Давыдов, Кристина Казинская, Сергей Романович, Анвар Халилулаев, Валерия Дмитриева, Евгений Стычкин, Илья Щербинин, Владимир Ильин, Сергей Дрейден, Евгений Сытый, Иван Мулин, Александр Яценко, Артём Сучков-Описание: В аномальной зоне Чернобыля, под защитным саркофагом четвёртого энергоблока, корпорация «Глобал Кинтек» ведёт незаконное строительство. Этим планам пытается помешать специальная межгосударственная комиссия, но прямо во время пресс-конференции на её руководителя нападает группа неизвестных террористов. И возглавляет их не кто иной, как Паша — когда-то он успешно сражался с Зоной, но, похоже, что теперь Зона сама захватила его. Четвёрке его друзей — Ане, Лёхе, Насте и Гоше — не остаётся ничего другого, кроме как снова прыгнуть в старую «Волгу» и отправиться в Припять, чтобы попытаться спасти Пашу и предотвратить катастрофу мирового масштаба.-Релиз группы: -Предыдущие и альтернативные раздачи-Реклама: Нет- - -Качество видео: WEBRip / WEBRip 1080p
Формат видео: AVI
Видео кодек: XviD
Аудио кодек: AC3-Видео: XviD, 688x288 (2.40:1), 25.000 fps, ~823 kbps avg, 0.166 bit/pixel
Аудио: 48 kHz, AC3 Dolby Digital, 2/0 (L,R) ch, ~192 kbps avg-

MediaInfo

Код:Complete name : D:\Раздача\01 - Чернобыль Зона отчуждения. Финал (2019) WEBRip_ivanes.avi
Format : AVI
Format/Info : Audio Video Interleave
File size : 745 MiB
Duration : 1 h 41 min
Overall bit rate : 1 024 kb/s
Writing application : VirtualDubMod 1.5.10.3 (build 2550/release)
Writing library : VirtualDubMod build 2550/release
Video
ID : 0
Format : MPEG-4 Visual
Format profile : Advanced Simple@L5
Format settings : BVOP1 / Custom Matrix
Format settings, BVOP : 1
Format settings, QPel : No
Format settings, GMC : No warppoints
Format settings, Matrix : Custom
Codec ID : XVID
Codec ID/Hint : XviD
Duration : 1 h 41 min
Bit rate : 823 kb/s
Width : 688 pixels
Height : 288 pixels
Display aspect ratio : 2.40:1
Frame rate : 25.000 FPS
Color space : YUV
Chroma subsampling : 4:2:0
Bit depth : 8 bits
Scan type : Progressive
Compression mode : Lossy
Bits/(Pixel*Frame) : 0.166
Stream size : 599 MiB (80%)
Writing library : XviD 67
Audio
ID : 1
Format : AC-3
Format/Info : Audio Coding 3
Commercial name : Dolby Digital
Codec ID : 2000
Duration : 1 h 41 min
Bit rate mode : Constant
Bit rate : 192 kb/s
Channel(s) : 2 channels
Channel layout : L R
Sampling rate : 48.0 kHz
Frame rate : 31.250 FPS (1536 SPF)
Bit depth : 16 bits
Compression mode : Lossy
Stream size : 140 MiB (19%)
Alignment : Split across interleaves
Interleave, duration : 40 ms (1.00 video frame)
Interleave, preload duratio : 500 ms
Service kind : Complete Main

Скриншоты

[cybertorrent.ru].t6546.torrent 
Торрент: Зарегистрирован [ 2019-09-23 19:06 ] · 697FA8339B364D81F46006BCF96D2A86045FA792

Скачать .torrent

Скачать

15 KB

Статус: проверено
Скачан: 0 раз
Размер: 745 MB
terms.php
Показать сообщения:    

Текущее время: 14-Дек 07:09

Часовой пояс: UTC ± 0



Вы не можете начинать темы
Вы не можете отвечать на сообщения
Вы не можете редактировать свои сообщения
Вы не можете удалять свои сообщения
Вы не можете голосовать в опросах
Вы не можете прикреплять файлы к сообщениям
Вы можете скачивать файлы