Статистика раздачи
Размер:  2,63 GB   |    Зарегистрирован:  2 месяца 18 дней   |    Скачан:  0 раз
Сидов:  2003  [  0 KB/s  ]   Личеров:  73  [  0 KB/s  ]  
 
     
 
 

Гость ®

Пол:
Не указан

Чернобыль: Зона отчуждения. Финал
Год выпуска: 2019
Производство: PREMIER Studios, Look Film
Жанр: триллер, фантастика
Продолжительность: ~01:41:00
Субтитры: нет
Режиссёр: Дмитрий Киселёв
В ролях: Константин Давыдов, Кристина Казинская, Сергей Романович, Анвар Халилулаев, Валерия Дмитриева, Евгений Стычкин, Илья Щербинин, Владимир Ильин, Сергей Дрейден, Евгений Сытый, Иван Мулин, Александр Яценко, Артём Сучков

Описание: «Чернобыль: Зона отчуждения. Финал» поставит точку в истории пятерых подростков, попытавшихся предотвратить самую известную в мире техногенную катастрофу. Им придётся вернуться, туда, откуда все начиналось – в Чернобыль, чтобы разгадать тайну происхождения Зоны отчуждения. Полнометражный фильм даст ответы на все загадки и интриги, а его создатели обещают выкрутить до максимума динамичность действия, зрелищность экшен-сцен и качество визуальных спецэффектов.

Альтернативное описание: В аномальной зоне Чернобыля, под защитным саркофагом четвёртого энергоблока, корпорация «Глобал Кинтек» ведёт незаконное строительство. Этим планам пытается помешать специальная межгосударственная комиссия, но прямо во время пресс-конференции на её руководителя нападает группа неизвестных террористов. И возглавляет их не кто иной, как Паша — когда-то он успешно сражался с Зоной, но, похоже, что теперь Зона сама захватила его. Четвёрке его друзей — Ане, Лёхе, Насте и Гоше — не остаётся ничего другого, кроме как снова прыгнуть в старую «Волгу» и отправиться в Припять, чтобы попытаться спасти Пашу и предотвратить катастрофу мирового масштаба.

Доп. информация: Как обещают авторы фильма, Финал будет состоять из трех разных версий. Все три будут начинаться одинаково, но в какой-то момент в результате минимальных ответвлений сюжета и «эффекта бабочки» та или иная линия начинают развиваться совершенно иначе, что приведет каждую версию фильма к совершенно разным финалам.
В итоге получится как бы три разных фильма.

Реклама: Нет.
Кинопоиск
Sample
Качество: WEBRip 720p - ExKinoRay
Формат: MKV
Видео кодек: H.264
Аудио кодек: AC3
Видео: MPEG4 AVC Video, H264, 2.40:1, 1280x536, 25 fps, ~3400 kbps, 0.200 bit/pixel
Аудио: AC3, 48.0 kHz, 2/0 (L,R) ch, 192 kbps

Внимание! Раздача ведётся путём добавления новых серий

Раздача ведётся путём добавления новых серий, при каждом добавлении создаётся новый торрент. Чтобы начать докачку новой серии, пользователям необходимо сделать следующее:
- Остановить скачивание.
- Удалить старый торрент у себя из клиента (старые серии удалять не надо).
- Скачать новый торрент и запустить его у себя в клиенте вместо старого, при этом указать клиенту путь в старую папку куда и должно происходить скачивание новых серий.
Ваш клиент при этом должен произвести хеширование (проверку) старой папки (если не производит сам - помогите ему сделать это), и будет докачивать только те серии которых у вас ещё нет. Старые серии при этом не удаляются, а продолжают раздаваться!
Если вы уже удалили старые серии, то предотвратить повторную закачку старых серий можно, отжав галочку в соответствующих местах при запуске нового торрента. По возможности, желательно не удалять старые серии как можно дольше, чтобы релизер не столько продолжал раздавать старые серии, а смог сконцентрироваться на новых.

MediaInfo

General
Unique ID : 209590986447890123802810721334259196233 (0x9DADC174BA27131AA3E08177C481A149)
Complete name : D:\Chernobyl.Zona.otchuzhdeniya.Final.2019.WEB-DL.(720p).ExKinoRay\Chernobyl.Zona.otchuzhdeniya.Final.(1.film.iz.3).2019.WEB-DL.(720p).ExKinoRay.mkv
Format : Matroska
Format version : Version 4 / Version 2
File size : 2.63 GiB
Duration : 1 h 41 min
Overall bit rate : 3 695 kb/s
Encoded date : UTC 2019-09-18 23:14:27
Writing application : mkvmerge v6.9.1 ('Blue Panther') 64bit built on Apr 18 2014 18:23:38
Writing library : libebml v1.3.0 + libmatroska v1.4.1
Video
ID : 1
Format : AVC
Format/Info : Advanced Video Codec
Format profile : High@L4.1
Format settings : CABAC / 9 Ref Frames
Format settings, CABAC : Yes
Format settings, ReFrames : 9 frames
Format settings, GOP : M=2, N=24
Codec ID : V_MPEG4/ISO/AVC
Duration : 1 h 41 min
Bit rate : 3 430 kb/s
Width : 1 280 pixels
Height : 536 pixels
Display aspect ratio : 2.40:1
Frame rate mode : Constant
Frame rate : 25.000 FPS
Color space : YUV
Chroma subsampling : 4:2:0
Bit depth : 8 bits
Scan type : Progressive
Bits/(Pixel*Frame) : 0.200
Stream size : 2.44 GiB (93%)
Default : No
Forced : No
Color range : Limited
Color primaries : BT.709
Transfer characteristics : BT.709
Matrix coefficients : BT.709
Audio
ID : 2
Format : AC-3
Format/Info : Audio Coding 3
Codec ID : A_AC3
Duration : 1 h 41 min
Bit rate mode : Constant
Bit rate : 192 kb/s
Channel(s) : 2 channels
Channel positions : Front: L R
Sampling rate : 48.0 kHz
Frame rate : 31.250 FPS (1536 SPF)
Bit depth : 16 bits
Compression mode : Lossy
Stream size : 140 MiB (5%)
Language : Russian
Service kind : Complete Main
Default : Yes
Forced : No

Скриншоты


Все раздачи "Чернобыль: Зона отчуждения" на Рутрекере
[cybertorrent.ru].t6549.torrent 
Торрент: Зарегистрирован [ 2019-09-23 19:06 ] · 5844FA41B960D635885E5C697C2A240693B46335

Скачать .torrent

Скачать

14 KB

Статус: проверено
Скачан: 0 раз
Размер: 2,63 GB
terms.php
Показать сообщения:    

Текущее время: 11-Дек 22:36

Часовой пояс: UTC ± 0



Вы не можете начинать темы
Вы не можете отвечать на сообщения
Вы не можете редактировать свои сообщения
Вы не можете удалять свои сообщения
Вы не можете голосовать в опросах
Вы не можете прикреплять файлы к сообщениям
Вы можете скачивать файлы