Статистика раздачи
Размер:  1,13 GB   |    Зарегистрирован:  2 месяца 18 дней   |    Скачан:  0 раз
Сидов:  96  [  0 KB/s  ]   Личеров:  2  [  0 KB/s  ]  
 
     
 
 

Гость ®

Пол:
Не указан

Высоко над страхом
Год выпуска: 2019
Производство: Россия, "Свэлл Фильм"
Жанр: Детектив, экранизация
Продолжительность: ~00:44:00 серия
Субтитры: Нет
Режиссёр: Андрей Элинсон
В ролях: Роман Маякин, Анастасия Грибова, Николай Горшков, Сергей Гамов, Денис Пьянов, Мария Сандлер, Никита Плащевский
Описание: Лида надеется, что в тихом провинциальном Малозареченске ей удастся быстрее восстановиться после развода. Но с каждым днем ей становится все хуже. Лиде начинает казаться, что дело не в психологической травме, а что в служебной квартире, где она живет, что-то не так. Собрав остатки сил, она тщательно обыскивает помещение и находит на антресолях странный футляр… Вот так начинается эта история, которая научит Лиду ничего не бояться – ни злых людей, ни добрых соседей, ни одиночества, ни любви…
Реклама: Нет
Сэмпл
Качество: WEBRip
Формат: AVI
Видео кодек: XviD
Аудио кодек: AC3
Видео: 720x400 (1.80:1), 25 fps, XviD, ~1618 kbps avg, 0.225 bit/pixel
Аудио: 48.0 kHz, AC3 Dolby Digital, 2/0 (L,R) ch, ~ 192 kbps

MI

General
Complete name : C:01.Высоко над страхом.(2019).WEB-DLRip.by.Nicodem.Files-x.avi
Format : AVI
Format/Info : Audio Video Interleave
File size : 579 MiB
Duration : 44mn 29s
Overall bit rate : 1 820 Kbps
Writing application : VirtualDubMod 1.5.10.3 | www.virtualdub-fr.org || (build 2550/release)
Writing library : VirtualDubMod build 2550/release
Video
ID : 0
Format : MPEG-4 Visual
Format profile : Advanced Simple@L5
Format settings, BVOP : 1
Format settings, QPel : No
Format settings, GMC : No warppoints
Format settings, Matrix : Custom
Codec ID : XVID
Codec ID/Hint : XviD
Duration : 44mn 29s
Bit rate : 1 618 Kbps
Width : 720 pixels
Height : 400 pixels
Display aspect ratio : 16:9
Frame rate : 25.000 fps
Color space : YUV
Chroma subsampling : 4:2:0
Bit depth : 8 bits
Scan type : Progressive
Compression mode : Lossy
Bits/(Pixel*Frame) : 0.225
Stream size : 515 MiB (89%)
Writing library : XviD 73
Audio
ID : 1
Format : AC-3
Format/Info : Audio Coding 3
Mode extension : CM (complete main)
Codec ID : 2000
Duration : 44mn 29s
Bit rate mode : Constant
Bit rate : 192 Kbps
Channel(s) : 2 channels
Channel positions : Front: L R
Sampling rate : 48.0 KHz
Bit depth : 16 bits
Compression mode : Lossy
Stream size : 61.1 MiB (11%)
Alignment : Split accross interleaves
Interleave, duration : 40 ms (1.00 video frame)
Interleave, preload duration : 500 ms

Скриншоты


Предыдущие и альтернативные раздачи
Релиз от:
[cybertorrent.ru].t6552.torrent 
Торрент: Зарегистрирован [ 2019-09-23 19:06 ] · E342167255FB4319BBF5E509F689017331B0B17E

Скачать .torrent

Скачать

12 KB

Статус: проверено
Скачан: 0 раз
Размер: 1,13 GB
terms.php
Показать сообщения:    

Текущее время: 11-Дек 22:06

Часовой пояс: UTC ± 0



Вы не можете начинать темы
Вы не можете отвечать на сообщения
Вы не можете редактировать свои сообщения
Вы не можете удалять свои сообщения
Вы не можете голосовать в опросах
Вы не можете прикреплять файлы к сообщениям
Вы можете скачивать файлы