Статистика раздачи
Размер:  1,45 GB   |    Зарегистрирован:  2 месяца 15 дней   |    Скачан:  0 раз

Полного источника не было: Никогда

 
     
 
 

Гость ®

Пол:
Не указан

Счастливый человек- Жанр: драма
Год выпуска: 1970
Продолжительность: 01:10:32-Режиссёр: Игорь Добролюбов-В ролях:
Вячеслав Захаров, Виталий Коняев, Эльвира Осипова, Павел Кормунин, Валентина Владимирова, Борис Гитин
Описание:
Прошло пять лет с тех пор, как Димка покинул родной город и уехал на Крайний Север. Вернувшись домой, он понял, что потерял друзей и любимую, которая собралась выйти замуж за его друга. Дима решил восстановить справедливость.-Сэмпл | Кинопоиск-Качество видео: HDTVRip-AVC
Формат видео: MKV
Видео: x264 (High@L4.1); 1152x508, Display aspect ratio 2.268:1, 25.000 fps, 2755 Kbps
Аудио: AC-3; 16 bits 48 Khz; 2.0ch 192 Kbps; CBR
george$t писал(а):
Благодарю Bartimeyse за любезно предоставленный материал.

Исходник / сравнение

Иссточником послужили две записи фильма (утро / вечер) белорусского телевидения.

утро

General
Unique ID : 185789797769652395108790308002104228834 (0x8BC5D040CA5433FD9F934FE023A23BE2)
Complete name : J:\1209schastie_morn_api.mkv
Format : Matroska
Format version : Version 2
File size : 3.10 GiB
Duration : 1 h 18 min
Overall bit rate : 5 683 kb/s
Encoded date : UTC 2019-09-20 17:59:09
Writing application : mkvmerge v7.8.0 ('River Man') 32bit built on Mar 27 2015 16:18:02
Writing library : libebml v1.3.1 + libmatroska v1.4.2
Video
ID : 1
Format : AVC
Format/Info : Advanced Video Codec
Format profile : High@L4.1
Format settings : CABAC / 2 Ref Frames
Format settings, CABAC : Yes
Format settings, ReFrames : 2 frames
Codec ID : V_MPEG4/ISO/AVC
Duration : 1 h 18 min
Width : 1 920 pixels
Height : 1 080 pixels
Display aspect ratio : 16:9
Frame rate mode : Constant
Frame rate : 25.000 FPS
Color space : YUV
Chroma subsampling : 4:2:0
Bit depth : 8 bits
Scan type : Progressive
Default : Yes
Forced : No
Audio
ID : 2
Format : AAC
Format/Info : Advanced Audio Codec
Format profile : LC
Codec ID : A_AAC-2
Duration : 1 h 18 min
Channel(s) : 2 channels
Channel positions : Front: L R
Sampling rate : 48.0 kHz
Frame rate : 46.875 FPS (1024 SPF)
Compression mode : Lossy
Delay relative to video : -36 ms
Default : Yes
Forced : No
На видео присутствует логотип вещателя и несколько анонсов. Примерно половина анонсов прикрыта заимствованием из повтора. Совпадающие остались.


Сравнение с тврипом.
https://cybertorrent.ru/viewtopic.php?t=3627999


MediaInfo

x264 log

avs [info]: 1152x508p 1:1 @ 25/1 fps (cfr)
avs [info]: color matrix: bt709
x264 [info]: using SAR=1/1
x264 [info]: using cpu capabilities: MMX2 SSE2Fast SSSE3 SSE4.2
x264 [info]: profile High, level 4.1, 4:2:0, 8-bit
x264 [info]: frame I:596 Avg QP:16.04 size: 64597
x264 [info]: frame P:23810 Avg QP:18.50 size: 28727
x264 [info]: frame B:81399 Avg QP:20.83 size: 9030
x264 [info]: consecutive B-frames: 2.3% 3.2% 9.5% 19.0% 17.9% 38.0% 6.7% 2.0% 0.9% 0.4%
x264 [info]: mb I I16..4: 3.1% 79.7% 17.2%
x264 [info]: mb P I16..4: 0.5% 10.7% 2.2% P16..4: 42.8% 28.4% 14.2% 0.6% 0.1% skip: 0.5%
x264 [info]: mb B I16..4: 0.0% 0.7% 0.3% B16..8: 41.5% 14.9% 3.8% direct: 9.2% skip:29.7% L0:38.4% L1:42.6% BI:19.0%
x264 [info]: 8x8 transform intra:78.4% inter:58.9%
x264 [info]: direct mvs spatial:99.8% temporal:0.2%
x264 [info]: coded y,uvDC,uvAC intra: 94.0% 0.0% 0.0% inter: 35.2% 0.0% 0.0%
x264 [info]: i16 v,h,dc,p: 11% 19% 8% 62%
x264 [info]: i8 v,h,dc,ddl,ddr,vr,hd,vl,hu: 16% 10% 4% 7% 12% 14% 12% 12% 12%
x264 [info]: i4 v,h,dc,ddl,ddr,vr,hd,vl,hu: 14% 11% 2% 8% 14% 15% 14% 11% 12%
x264 [info]: i8c dc,h,v,p: 100% 0% 0% 0%
x264 [info]: Weighted P-Frames: Y:13.0% UV:0.0%
x264 [info]: ref P L0: 43.9% 13.4% 15.0% 5.3% 4.7% 3.2% 3.3% 1.8% 2.0% 1.5% 1.7% 1.3% 1.5% 1.3% 0.3% 0.0%
x264 [info]: ref B L0: 85.4% 7.2% 2.3% 1.2% 0.8% 0.8% 0.6% 0.4% 0.3% 0.3% 0.3% 0.3% 0.1%
x264 [info]: ref B L1: 97.8% 2.2%
x264 [info]: kb/s:2755.12
-General
Unique ID : 179194317496428582398286257737055403723 (0x86CF91F82BCD84F4A0BEFD2B749CFECB)
Complete name : Счастливый человек.1970.mkv
Format : Matroska
Format version : Version 2
File size : 1.45 GiB
Duration : 1 h 10 min
Overall bit rate : 2 949 kb/s
Encoded date : UTC 2019-09-22 12:11:17
Writing application : mkvmerge v7.8.0 ('River Man') 32bit built on Mar 27 2015 16:18:02
Writing library : libebml v1.3.1 + libmatroska v1.4.2
Video
ID : 1
Format : AVC
Format/Info : Advanced Video Codec
Format profile : High@L4.1
Format settings : CABAC / 14 Ref Frames
Format settings, CABAC : Yes
Format settings, ReFrames : 14 frames
Codec ID : V_MPEG4/ISO/AVC
Duration : 1 h 10 min
Bit rate : 2 755 kb/s
Width : 1 152 pixels
Height : 508 pixels
Display aspect ratio : 2.25:1
Frame rate mode : Constant
Frame rate : 25.000 FPS
Color space : YUV
Chroma subsampling : 4:2:0
Bit depth : 8 bits
Scan type : Progressive
Bits/(Pixel*Frame) : 0.188
Stream size : 1.33 GiB (91%)
Title : Счастливый человек.1970
Writing library : x264 core 157 r2867+103 0d6443f t_mod_Custom_2 [8-bit@all X86]
Encoding settings : cabac=1 / ref=14 / deblock=1:-2:-2 / analyse=0x3:0x133 / me=umh / subme=10 / psy=1 / fade_compensate=0.00 / psy_rd=1.03:0.10 / mixed_ref=1 / me_range=32 / chroma_me=1 / trellis=2 / 8x8dct=1 / cqm=0 / deadzone=21,11 / fast_pskip=0 / chroma_qp_offset=-3 / threads=12 / lookahead_threads=2 / sliced_threads=0 / nr=0 / decimate=0 / interlaced=0 / bluray_compat=0 / constrained_intra=0 / fgo=0 / bframes=9 / b_pyramid=2 / b_adapt=2 / b_bias=0 / direct=3 / weightb=1 / open_gop=0 / weightp=2 / keyint=250 / keyint_min=25 / scenecut=40 / intra_refresh=0 / rc_lookahead=60 / rc=2pass / mbtree=0 / bitrate=2755 / ratetol=1.0 / qcomp=0.60 / qpmin=0:0:0 / qpmax=69:69:69 / qpstep=4 / cplxblur=20.0 / qblur=0.5 / vbv_maxrate=62500 / vbv_bufsize=78125 / nal_hrd=none / filler=0 / ip_ratio=1.35 / pb_ratio=1.30 / aq=1:0.60 / aq-sensitivity=10.00 / aq-factor=1.00:1.00:1.00 / aq2=0 / aq3=0
Language : Russian
Default : Yes
Forced : No
Color range : Limited
Color primaries : BT.709
Transfer characteristics : BT.709
Matrix coefficients : BT.709
Audio
ID : 2
Format : AC-3
Format/Info : Audio Coding 3
Codec ID : A_AC3
Duration : 1 h 10 min
Bit rate mode : Constant
Bit rate : 192 kb/s
Channel(s) : 2 channels
Channel positions : Front: L R
Sampling rate : 48.0 kHz
Frame rate : 31.250 FPS (1536 SPF)
Bit depth : 16 bits
Compression mode : Lossy
Stream size : 96.9 MiB (7%)
Title : AC-3; 16 bits 48 Khz; 2.0ch 192 Kbps; CBR
Language : Russian
Service kind : Complete Main
Default : Yes
Forced : No

Скриншоты

[cybertorrent.ru].t6554.torrent 
Торрент: Зарегистрирован [ 2019-09-23 19:06 ] · 2980680A9CEC8401231004E94D951797A915D51B

Скачать .torrent

Скачать

15 KB

Статус: проверено
Скачан: 0 раз
Размер: 1,45 GB
terms.php
Показать сообщения:    

Текущее время: 09-Дек 15:07

Часовой пояс: UTC ± 0



Вы не можете начинать темы
Вы не можете отвечать на сообщения
Вы не можете редактировать свои сообщения
Вы не можете удалять свои сообщения
Вы не можете голосовать в опросах
Вы не можете прикреплять файлы к сообщениям
Вы можете скачивать файлы