Статистика раздачи
Размер:  1,46 GB   |    Зарегистрирован:  2 месяца 15 дней   |    Скачан:  0 раз

Полного источника не было: Никогда

 
     
 
 

Гость ®

Пол:
Не указан

Бэтмен против Дракулы / The Batman vs Dracula: The Animated Movie
Страна: США
Жанр: мультфильм, ужасы, боевик, триллер
Год выпуска: 2005
Продолжительность: 01:23:44-Перевод 1: Профессиональный (дублированный)
Перевод 2: Профессиональный (двухголосый закадровый)
Субтитры: русские, английские
Оригинальная аудиодорожка: английский-Режиссер: Майкл Гогуэн, Сын Юнь Ким / Michael Goguen, Seung Eun Kim-В ролях: Джефф Беннетт, Нил Дункан, Ричард Грин, Том Кенни, Кевин Майкл Ричардсон, Рино Романо, Нил Росс, Джеймс Си, Петер Стормаре, Тара Стронг-Описание: В то время как Готэм Сити спит под прикрытием темноты, вылетают две легендарные мыши. Одна из них превращает город в армию вампиров, а другая пытается сделать все возможное, чтобы предотвратить это событие. Но Дракула — зто не просто один из врагов Бэтмена, он обладает сверхъестественными способностями, скоростью и умом. Хотя даже со своим арсеналом технических приспособлений, Черный Рыцарь смертен.- -Качество видео: WEB-DLRip
Формат видео: AVI
Видео: 720x400 (1.80:1), 23.976 fps, XviD build 73 ~2000 kbps avg, 0.29 bit/pixel
Аудио 1: 48 kHz, AC3 Dolby Digital, 2/0 (L,R) ch, ~192 kbps | DUB
Аудио 2: 48 kHz, AC3 Dolby Digital, 1/0 (C) ch, ~96 kbps | DVO
Аудио 3: 48 kHz, AC3 Dolby Digital, 2/0 (L,R) ch, ~192 kbps | ENG-[box]Сэмпл[/box]-

MediaInfo

Код:Формат : AVI
Формат/Информация : Audio Video Interleave
Размер файла : 1,46 Гбайт
Продолжительность : 1 ч. 23 м.
Общий поток : 2501 Кбит/сек
Название фильма : Бэтмен против Дракулы_2005_WEB-DLRip
Программа кодирования : VirtualDubMod 1.5.10.3 | www.virtualdub-fr.org || (build 2550/release)
Авторское право : порошков
Видео
Идентификатор : 0
Формат : MPEG-4 Visual
Профиль формата : Advanced Simple@L5
Настройки формата : BVOP1 / Custom Matrix
Параметр BVOP формата : 1
Параметр QPel формата : Нет
Параметр GMC формата : Без точки перехода
Параметр матрицы формата : Выборочная
Идентификатор кодека : XVID
Идентификатор кодека/Подсказка : XviD
Продолжительность : 1 ч. 23 м.
Битрейт : 2002 Кбит/сек
Ширина : 720 пикселей
Высота : 400 пикселей
Соотношение сторон : 16:9
Частота кадров : 23,976 (24000/1001) кадра/сек
Цветовое пространство : YUV
Субдискретизация насыщенности : 4:2:0
Битовая глубина : 8 бит
Тип развёртки : Прогрессивная
Метод сжатия : С потерями
Бит/(Пиксели*Кадры) : 0.290
Размер потока : 1,17 Гбайт (80%)
Библиотека кодирования : XviD 73
Аудио #1
Идентификатор : 1
Формат : AC-3
Формат/Информация : Audio Coding 3
Коммерческое название : Dolby Digital
Идентификатор кодека : 2000
Продолжительность : 1 ч. 23 м.
Вид битрейта : Постоянный
Битрейт : 192 Кбит/сек
Каналы : 2 канала
ChannelLayout : L R
Частота : 48,0 КГц
Частота кадров : 31,250 кадров/сек (1536 SPF)
Метод сжатия : С потерями
Размер потока : 115 Мбайт (8%)
Выравнивание : Разделение по промежуткам
Продолжительность промежутка : 42 мс. (1,00 видеокадр)
Время предзагрузки промежутка : 500 мс.
Заголовок : Rus dub
ServiceKind/String : Complete Main
Аудио #2
Идентификатор : 2
Формат : AC-3
Формат/Информация : Audio Coding 3
Коммерческое название : Dolby Digital
Идентификатор кодека : 2000
Продолжительность : 1 ч. 23 м.
Вид битрейта : Постоянный
Битрейт : 96,0 Кбит/сек
Каналы : 1 канал
ChannelLayout : C
Частота : 48,0 КГц
Частота кадров : 31,250 кадров/сек (1536 SPF)
Метод сжатия : С потерями
Размер потока : 57,4 Мбайт (4%)
Выравнивание : Разделение по промежуткам
Продолжительность промежутка : 42 мс. (1,00 видеокадр)
Время предзагрузки промежутка : 500 мс.
Заголовок : Rus dvo
ServiceKind/String : Complete Main
Аудио #3
Идентификатор : 3
Формат : AC-3
Формат/Информация : Audio Coding 3
Коммерческое название : Dolby Digital
Идентификатор кодека : 2000
Продолжительность : 1 ч. 23 м.
Вид битрейта : Постоянный
Битрейт : 192 Кбит/сек
Каналы : 2 канала
ChannelLayout : L R
Частота : 48,0 КГц
Частота кадров : 31,250 кадров/сек (1536 SPF)
Метод сжатия : С потерями
Размер потока : 115 Мбайт (8%)
Выравнивание : Разделение по промежуткам
Продолжительность промежутка : 42 мс. (1,00 видеокадр)
Время предзагрузки промежутка : 500 мс.
Заголовок : Eng
ServiceKind/String : Complete Main

Скриншоты


[cybertorrent.ru].t6555.torrent 
Торрент: Зарегистрирован [ 2019-09-23 19:06 ] · BF1C768288CCA45FC37F6F44AFE8F526438A1625

Скачать .torrent

Скачать

15 KB

Статус: проверено
Скачан: 0 раз
Размер: 1,46 GB
terms.php
Показать сообщения:    

Текущее время: 09-Дек 15:00

Часовой пояс: UTC ± 0



Вы не можете начинать темы
Вы не можете отвечать на сообщения
Вы не можете редактировать свои сообщения
Вы не можете удалять свои сообщения
Вы не можете голосовать в опросах
Вы не можете прикреплять файлы к сообщениям
Вы можете скачивать файлы