Статистика раздачи
Размер:  952 MB   |    Зарегистрирован:  2 месяца 20 дней   |    Скачан:  0 раз
Сидов:  1  [  0 KB/s  ]  
 
     
 
 

Гость ®

Пол:
Не указан

Не в стульях счастье / La sedia della felicita
Страна: Италия
Жанр: Комедия, приключения
Год выпуска: 2013
Продолжительность: 01:34:12
Перевод: Одноголосый закадровый Stalk
Субтитры: нет
Оригинальная аудиодорожка: итальянский
Режиссер: Карло Маццакурати / Carlo Mazzacurati
В ролях: Валерио Мастандреа, Изабелла Рагонезе, Джузеппе Баттистон, Рауль Кремона, Мария Пайато, Лучиа Машино, Наталино Балассо, Роберто Аббьяти, Мирко Артусо, Козимо Мессери и др.
Описание: Дино — татуировщик, который травит своим клиентам байки про зубастую сперму китов и делится нехитрой холостяцкой мудростью: «Женщины приходят и уходят, а татуировка остается». Бруна — косметолог из соседнего салона, которая в один день лишается и профессионального, и личного счастья: солярий забирают за долги, муж уличен в измене. Ко всему прочему, Бруна лишается одной из редких постоянных клиенток: колоритная бандерша-заключенная скоропостижно умирает, но успевает сообщить о сокровищах, спрятанных в старинном стуле. Бруна и Дино отправляются на поиски в извилистый путь от Венеции до Альп. И это кинопутешествие будет и опасным, и приятным, и живописным.(с)кинопоиск
Доп. информация:
Релиз
Рип bankolya сделал с DVD из своей личной коллекции.
Фильм перевела mortishia!
Stalk озвучил фильм.
Оригинальная итальянская дорога сохранена
Внимание! В начале фильма идет 20 секунд абсолютной тишины. Это не ошибка, так задумано создателями фильма, как и оригинальное место для кадра с названием.
Дополнительно: Разумеется, в фильме нет никаких упоминаний об Ильфе и Петрове. Да и общего с великим романом не так много. Но есть "Конкурирующая организация" - священник и есть стулья, в одном из которых спрятаны драгоценности.
Сэмпл: http://multi-up.com/1241893
Качество видео: DVDRip
Формат видео: AVI
Видео: 736x304 (2.42:1), 25 fps, XviD build 46 ~821 kbps avg, 0.15 bit/pixel
Аудио: 44.100 kHz, MPEG Layer 3, 2 ch, ~128.00 kbps avg - Озвучивание киноклуба "Феникс"
Аудио 2: 48 kHz, MPEG Layer 3, 2 ch, ~192.00 kbps avg - Итальянский

MediaInfo

General
Complete name : C:\Users\Екатерина\Desktop\La.sedia.della.felicitа.2013.rus it .avi
Format : AVI
Format/Info : Audio Video Interleave
File size : 952 MiB
Duration : 1h 34mn
Overall bit rate : 1 412 Kbps
Writing application : VirtualDubMod 1.5.10.2 (build 2540/release)
Writing library : VirtualDubMod build 2540/release
Video
ID : 0
Format : MPEG-4 Visual
Format profile : Advanced Simple@L5
Format settings, BVOP : 2
Format settings, QPel : No
Format settings, GMC : No warppoints
Format settings, Matrix : Default (MPEG)
Codec ID : XVID
Codec ID/Hint : XviD
Duration : 1h 34mn
Bit rate : 822 Kbps
Width : 736 pixels
Height : 304 pixels
Display aspect ratio : 2.40:1
Frame rate : 25.000 fps
Color space : YUV
Chroma subsampling : 4:2:0
Bit depth : 8 bits
Scan type : Progressive
Compression mode : Lossy
Bits/(Pixel*Frame) : 0.147
Stream size : 554 MiB (58%)
Writing library : XviD 1.1.2 (UTC 2006-11-01)
Audio #1
ID : 1
Format : MPEG Audio
Format version : Version 1
Format profile : Layer 3
Mode : Joint stereo
Codec ID : 55
Codec ID/Hint : MP3
Duration : 1h 34mn
Bit rate mode : Constant
Bit rate : 128 Kbps
Channel(s) : 2 channels
Sampling rate : 44.1 KHz
Compression mode : Lossy
Stream size : 86.3 MiB (9%)
Alignment : Split accross interleaves
Interleave, duration : 40 ms (1.00 video frame)
Interleave, preload duratio : 500 ms
Audio #2
ID : 2
Format : AC-3
Format/Info : Audio Coding 3
Mode extension : CM (complete main)
Format settings, Endianness : Big
Codec ID : 2000
Duration : 1h 34mn
Bit rate mode : Constant
Bit rate : 448 Kbps
Channel(s) : 6 channels
Channel positions : Front: L C R, Side: L R, LFE
Sampling rate : 48.0 KHz
Compression mode : Lossy
Stream size : 302 MiB (32%)
Alignment : Split accross interleaves
Interleave, duration : 40 ms (1.00 video frame)
Interleave, preload duratio : 500 ms

Скриншоты

[cybertorrent.ru].t6561.torrent 
Торрент: Зарегистрирован [ 2019-09-23 19:06 ] · D849B630EABC45A4893007A510A0033BCB46BE75

Скачать .torrent

Скачать

19 KB

Статус: проверено
Скачан: 0 раз
Размер: 952 MB
terms.php
Показать сообщения:    

Текущее время: 14-Дек 08:13

Часовой пояс: UTC ± 0



Вы не можете начинать темы
Вы не можете отвечать на сообщения
Вы не можете редактировать свои сообщения
Вы не можете удалять свои сообщения
Вы не можете голосовать в опросах
Вы не можете прикреплять файлы к сообщениям
Вы можете скачивать файлы