Статистика раздачи
Размер:  1,37 GB   |    Зарегистрирован:  3 месяца 8 дней   |    Скачан:  0 раз

Полного источника не было: Никогда

Личеров:  1  [  0 KB/s  ]  
 
   
 
 

lopster ®

Пол:
Не указан
Стаж:
3 месяца 8 дней
Сообщений:
612

Материнский Инстинкт
Год выпуска: 2008
Жанр: Мелодрама
Продолжительность: 01:30:58
Режиссер: Владимир Басов, Ольга Басова
В ролях: Виктория Толстоганова, Ярослав Бойко Настя Павлюченкова, Ольга Арнтгольц
Описание: Когда-то у Маши и Игоря была счастливая семья, родилась дочка. Игорь стал все чаще и чаще приходить домой поздно. Маша стала догадываться, что у любимого появилась другая. Маша, зная, что муж изменяет ей, боялась подать на развод: не хотела оставлять дочку без папы, которого Настя без ума любила. Поэтому терпела, и тихо стала выпивать бокал вина по вечерам, когда дочка спала, и было особенно одиноко… Так однажды Игорь застает свою жену с бутылкой вина. Игорь забирает сонного ребенка и уезжает из дома. Разумеется, любовница узнав о произошедшем, только подливает масла в огонь. Это ее шанс. Девушка разводит Игоря с женой и некоторое время изображает из себя любящую мачеху… Но как только в ее паспорте появляется штамп о законном браке, поведение дамы резко меняется. Она больше не сюсюкает с лишенной материнской любви девочкой, и не старается понравиться ребенку… Теперь чужой ребенок ей «абсолютно до лампочки»! Тем временем брошенная Маша пытается вернуть себе дочку…
Все раздачи фильма: Материнский инстинкт
Качество: DVDRip
Формат: AVI
Видео кодек: DivX
Аудио кодек: AC3
Видео: 720x416 (1.73:1), 25 fps, DivX Codec 5.x or 6.x ~1953 kbps avg, 0.26 bit/pixel
Аудио: 48 kHz, AC3 Dolby Digital, 2/0 (L,R) ch, ~192.00 kbps avg

MI

Код:Общее
Полное имя : C:\otkat\Видео\Материнский инстинкт\MaterinskiJ.Instinkt.2008.DivX.DVDRip.[torrents.ru].avi
Формат : AVI
Формат/Информация : Audio Video Interleave
Размер файла : 1,37 Гбайт
Продолжительность : 1 ч. 30 м.
Общий поток : 2152 Кбит/сек
Программа кодирования : VirtualDubMod 1.5.4.1 (build 2178/release)
Библиотека кодирования : VirtualDubMod build 2178/release
Видео
Идентификатор : 0
Формат : MPEG-4 Visual
Параметр BVOP формата : 1
Параметр QPel формата : Нет
Параметр GMC формата : Без точки перехода
Параметр матрицы формата : Default (H.263)
Режим смешивания : Сжатый битовый поток
Идентификатор кодека : DX50
Идентификатор кодека/Подсказка : DivX 5
Продолжительность : 1 ч. 30 м.
Битрейт : 1954 Кбит/сек
Ширина : 720 пикселей
Высота : 416 пикселей
Соотношение сторон : 1,731
Частота кадров : 25,000 кадров/сек
Цветовое пространство : YUV
Субдискретизация насыщенности : 4:2:0
Битовая глубина : 8 бит
Тип развёртки : Прогрессивная
Метод сжатия : С потерями
Бит/(Пиксели*Кадры) : 0.261
Размер потока : 1,24 Гбайт (91%)
Библиотека кодирования : DivX 6.7.0 (UTC 2007-09-20)
Аудио
Идентификатор : 1
Формат : AC-3
Формат/Информация : Audio Coding 3
Расширение режима : CM (complete main)
Параметр Endianness формата : Big
Идентификатор кодека : 2000
Продолжительность : 1 ч. 30 м.
Вид битрейта : Постоянный
Битрейт : 192 Кбит/сек
Каналы : 2 канала
Расположение каналов : Front: L R
Частота : 48,0 КГц
Частота кадров : 31,250 кадров/сек (1536 spf)
Метод сжатия : С потерями
Размер потока : 125 Мбайт (9%)
Выравнивание : Разделение по промежуткам
Продолжительность промежутка : 96 мс. (2,40 видеокадра)
Время предзагрузки промежутка : 96 мс.
Язык : Russian

Скриншоты


[cybertorrent.ru].t66.torrent 
Торрент: Зарегистрирован [ 2018-02-15 13:57 ] · A946386265267015105F0FAC80B79796C3410191

Скачать .torrent

Скачать

14 KB

Статус: проверено
Скачан: 0 раз
Размер: 1,37 GB
Профиль [ЛС]
Показать сообщения:    

Текущее время: 23-Май 16:25

Часовой пояс: UTC ± 0



Вы не можете начинать темы
Вы не можете отвечать на сообщения
Вы не можете редактировать свои сообщения
Вы не можете удалять свои сообщения
Вы не можете голосовать в опросах
Вы не можете прикреплять файлы к сообщениям
Вы можете скачивать файлы